Welcome Guest ( Log In | Register )

> Mournful Winter - Viscus Et Os (2020), Black Metal
post May 24 2020, 01:44:12
Post #1

Правь статус, ####!111
**************
Group: Металариец
Posts: 22,638
Releases: 15735
From: Г.Харьков
On Forums: 8 years 2 months
Thanks: 289605 time(s)
Unknown


(IMG:https://metalarea.org/images/audiocovers/2020_May/acov_tid338008_thumb.jpg)

*Artist: Mournful Winter
*Album: Viscus Et Os
*Year: 2020
*Genre: Black Metal
*Country: Germany (IMG:https://metalarea.org/forum/style_images/flags/Germany.png)
*Format: mp3@CBR320kbps
*Size: 128MB

Tracklist:
1. Unfathomable Chaos 06:34
2. Moonless Skies 10:51
3. Dysthymia 05:25
4. Bereavement 07:26
5. Desolation of Souls 10:59
6. Viscus et Os 12:32
******************************
Total playing time: 53:47


Preview 2

Extended info
Tenebros Everything (2009-2016), Vocals, Guitars (rhythm) (2016-present)
See also: Front Beast (live)
Misärist Drums (2016-present)
See also: Cathera, Phantasia, Zanpanzar, No Mercy for the Mind
Befana Guitars (lead), Clarinet, Mandoline (2016-present)
Draug Bass (2018-present)


Technical info
(IMG:https://metalarea.org/images/spectrogram/2020_May/17eba52b24c6ea2a18f44b48225c72b1.png)
Input File: 03 Dysthymia.mp3
Channels : 2
Sample Rate : 44100
Precision : 16-bit
Duration : 00:05:25.79 = 14367383 samples = 24434.3 CDDA sectors
File Size : 13.9M
Bit Rate : 340k
Sample Encoding: MPEG audio (layer I, II or III)
Comments :
Title=Dysthymia
Artist=Mournful Winter
Album=Viscus Et Os
Tracknumber=3/6
Year=2020-20-20
Genre=Metal
Discnumber=1/1



Register


Go to the top of the page
  Insert nick Quick quote
+Quote Post
 
Start new topic
Replies (1 - 3)
post May 24 2020, 19:15:39
Post #2

Group: Дух
Posts: 4
Releases: 0
From: England, Manchester.
On Forums: 6 years 1 week
Thanks: 3 time(s)
United Kingdom


Thank you (IMG:style_emoticons/default/9.gif)


Go to the top of the page
  Insert nick Quick quote
+Quote Post
post May 25 2020, 02:01:50
Post #3

Литр
*
Group: Подсевший
Posts: 83
Releases: 0
On Forums: 1 year 7 months
Thanks: 15 time(s)
Russian Federation


Запись звука прекрасна, но блэковости в самой музыке лично мне не достаёт.
Go to the top of the page
  Insert nick Quick quote
+Quote Post
post May 25 2020, 08:34:11
Post #4

my church is black
*********
Group: Металариец
Posts: 972
Releases: 3
On Forums: 3 years 1 month
Thanks: 615 time(s)
Cape Verde


довольно тягомотный альбом, еле дослушал. хотя вроде бы и не плохо.
Go to the top of the page
  Insert nick Quick quote
+Quote Post

Reply to this topicStart new topic
1 User(s) are reading this topic (1 Guests and 0 Anonymous Users)
0 Members:

 



- Lo-Fi Version Support form
Copyrights and abuse reports form
Time is now: 7th August 2020 - 17:03:47