Welcome Guest ( Log In | Register )

> И неформату есть предел.

Рэп/хип-хоп/шансон/поп удаляются. Для них есть свои порталы.

> Mrs. Piss - Self-Surgery (2020), Alternative Rock/Dark Ambient
post May 28 2020, 14:04:37
Post #1

Четыре Литра
****
Group: Металариец
Posts: 346
Releases: 128
From: Helvetia
On Forums: 7 years 5 months
Thanks: 2458 time(s)
Switzerland


(IMG:https://metalarea.org/images/audiocovers/2020_May/acov_tid338272_thumb.jpg)

*Artist: Mrs. Piss
*Album: Self-Surgery
*Year: 2020
*Genre: Alternative Rock/Dark Ambient
*Country: United States (IMG:https://metalarea.org/forum/style_images/flags/United%20States.png)
*Format: mp3@CBR320kbps
*Size: 43MB

Tracklist:
1. To Crawl Inside 00:43
2. Downer Surrounded by Uppers 02:00
3. Knelt 04:03
4. Nobody Wants to Party with Us 02:49
5. M.B.O.T.W.O. 01:22
6. You Took Everything 02:34
7. Self-Surgery 02:42
8. Mrs. Piss 02:33
******************************
Total playing time: 18:46


(IMG:https://metalarea.org/images/youtube.png)

Extended info
Mrs. Piss is a collaboration between Chelsea Wolfe and Jess Gowrie. Drawing on their collective rock, metal, and industrial influences, the project began while the two were touring around together during Wolfe’s Hiss Spun album in 2017. These songs feel more urgent and visceral than anything either of them has created before: heaviness spurred on by punk spirit.


Technical info
(IMG:https://metalarea.org/images/spectrogram/2020_May/3c7af6d933ef7b507223c6c0247ca046.png)
Input File: 4 - Nobody Wants to Party with Us.mp3
Channels : 2
Sample Rate : 44100
Precision : 16-bit
Duration : 00:02:49.78 = 7487386 samples = 12733.6 CDDA sectors
File Size : 6.81M
Bit Rate : 321k
Sample Encoding: MPEG audio (layer I, II or III)
Comments :
Title=Nobody Wants to Party with Us
Artist=Mrs. Piss
Album=Self-Surgery
Tracknumber=4
Year=2020
Genre=Metal
Discnumber=1



Register


Go to the top of the page
  Insert nick Quick quote
+Quote Post
 
Start new topic
Replies (1 - 7)
post May 29 2020, 11:25:56
Post #2

Четыре Литра
****
Group: Металариец
Posts: 315
Releases: 0
On Forums: 13 years 2 months
Thanks: 218 time(s)
Russian Federation


о, новый альбом Chelsea Wolfe. класс


Thanks:
(1) Ghostb,
Go to the top of the page
  Insert nick Quick quote
+Quote Post
post May 29 2020, 12:14:43
Post #3

кручу наждак
**************
Group: Металариец
Posts: 4,483
Releases: 102
From: Самара
On Forums: 10 years 1 month
Thanks: 3591 time(s)
Russian Federation


Это что, зацензуренный вариант обложки?


Thanks:
Go to the top of the page
  Insert nick Quick quote
+Quote Post
post May 29 2020, 17:05:57
Post #4

Правь статус, ####!111
**************
Group: Металариец
Posts: 46,772
Releases: 731
On Forums: 11 years 1 month
Thanks: 39425 time(s)
Russian Federation


Узнаваемо. Атмосферный релиз, где тебе и характерные медитативные трэки в духе Челси, так и более бойко-боевитые металлические вещи.

Этакий выплеск энергии.

Неплохо, но предыдущие работы Челси больше по душе.


Thanks:
(1) Ghostb,
Go to the top of the page
  Insert nick Quick quote
+Quote Post
post Jun 1 2020, 09:59:37
Post #5

кручу наждак
**************
Group: Металариец
Posts: 4,483
Releases: 102
From: Самара
On Forums: 10 years 1 month
Thanks: 3591 time(s)
Russian Federation


Обратил внимание на хронометраж только когда пару минут просидел, слушая тишину. (IMG:style_emoticons/default/1488.gif)
Очень лаконично все, но в принципе по делу. Такая альтернативная панкуха с узнаваемым вокалом. Мне понравилось.
Go to the top of the page
  Insert nick Quick quote
+Quote Post
post Jun 2 2020, 12:34:26
Post #6

http://rateyourmusic.com/~Ghostb
**************
Group: Металариец
Posts: 2,175
Releases: 0
From: Харьков
On Forums: 10 years 9 months
Thanks: 1008 time(s)
Ukraine


На удивление неплохой музон для такого вроде как не слишком серьезного проекта. Девки развлекаются (IMG:style_emoticons/default/crazy.gif)
Go to the top of the page
  Insert nick Quick quote
+Quote Post
post Jun 2 2020, 13:12:36
Post #7

Три Литра
***
Group: Завсегдатай
Posts: 228
Releases: 0
On Forums: 4 months 2 weeks
Thanks: 138 time(s)
Unknown


Обе музыкантки узнаваемы и интересны. Творческий тандем записал неплохой пост панк перемешенный с электроникой, в меру мрачный и в меру лиричный.
Go to the top of the page
  Insert nick Quick quote
+Quote Post
post Jun 2 2020, 13:24:03
Post #8

http://rateyourmusic.com/~Ghostb
**************
Group: Металариец
Posts: 2,175
Releases: 0
From: Харьков
On Forums: 10 years 9 months
Thanks: 1008 time(s)
Ukraine


ЦИТАТА(fylopaloma @ May 28 2020, 16:04:37) *
Alternative Rock/Dark Ambient

ЦИТАТА(judaz @ Jun 1 2020, 11:59:37) *
альтернативная панкуха с узнаваемым вокалом

ЦИТАТА(Der_Hexer @ Jun 2 2020, 15:12:36) *
пост панк перемешенный с электроникой

Как только не обзывают музыку этого проекта (IMG:style_emoticons/default/1488.gif)
Go to the top of the page
  Insert nick Quick quote
+Quote Post

Reply to this topicStart new topic
1 User(s) are reading this topic (1 Guests and 0 Anonymous Users)
0 Members:

 



- Lo-Fi Version Support form
Copyrights and abuse reports form
Time is now: 10th July 2020 - 04:09:04