Welcome Guest ( Log In | Register )

> И неформату есть предел.

Рэп/хип-хоп/шансон/поп удаляются. Для них есть свои порталы.

> Soldat Hans - Dress Rehearsal (2014), Psychedelic/Folk Rock/Sludge/Post-Metal/Dark Jazz
post May 29 2020, 20:07:33
Post #1

hard sci-fi rock
**************
Group: Металариец
Posts: 2,495
Releases: 48
From: Purple sea
On Forums: 2 years 8 months
Thanks: 2603 time(s)
Unknown


(IMG:https://metalarea.org/images/audiocovers/2020_May/acov_tid338336_thumb.jpg)

*Artist: Soldat Hans
*Album: Dress Rehearsal
*Year: 2014
*Genre: Psychedelic/Folk Rock/Sludge/Post-Metal/Dark Jazz
*Country: Switzerland (IMG:https://metalarea.org/forum/style_images/flags/Switzerland.png)
*Format: mp3@CBR320kbps
*Size: 143MB

Tracklist:
1.Meine Liebste; Sie zerbricht sich 15:21
2.Esthère (im bronzefarbenen Licht) 13:34
3.Zikueth! Zikueth! 18:25
4.Liefdesgrot 15:08
******************************
Total playing time: 1:02:28



Extended info


Technical info
(IMG:https://metalarea.org/images/spectrogram/2020_May/002131530e61baff0784711c8a5f7170.png)
Input File: 02. Esthère (im bronzefarbenen Licht).mp3
Channels : 2
Sample Rate : 44100
Precision : 16-bit
Duration : 00:13:34.89 = 35936429 samples = 61116.4 CDDA sectors
File Size : 32.6M
Bit Rate : 320k
Sample Encoding: MPEG audio (layer I, II or III)
Comments :
Title=Esthère (im bronzefarbenen Licht)
Artist=Soldat Hans
Album=Dress Rehearsal
Tracknumber=2
Year=2014



Register


Go to the top of the page
  Insert nick Quick quote
+Quote Post
 
Start new topic
Replies (1 - 2)
post May 31 2020, 13:19:12
Post #2

Два Литра
**
Group: Завсегдатай
Posts: 175
Releases: 0
From: Чуркестан
On Forums: 13 years 2 weeks
Thanks: 17 time(s)
Uzbekistan


Здесь только поц-метал и фюнерал джаз, весьма конформные имхо.


Thanks:
(1) Aresson,
Go to the top of the page
  Insert nick Quick quote
+Quote Post
post May 31 2020, 17:45:27
Post #3

De Mysteriis Dom Sathanas
**************
Group: Металариец
Posts: 4,043
Releases: 63
From: Doom
On Forums: 12 years 2 months
Thanks: 3447 time(s)
Russian Federation


Гитлер зольдатен? (IMG:style_emoticons/default/25.gif)
Go to the top of the page
  Insert nick Quick quote
+Quote Post

Reply to this topicStart new topic
2 User(s) are reading this topic (2 Guests and 0 Anonymous Users)
0 Members:

 



- Lo-Fi Version Support form
Copyrights and abuse reports form
Time is now: 22nd September 2020 - 08:56:04