Welcome Guest ( Log In | Register )

> И неформату есть предел.

Рэп/хип-хоп/шансон/поп удаляются. Для них есть свои порталы.

 
Reply to this topicStart new topic
> Myteri - Myteri (2015), Melodic Crust/Dark Hardcore
post May 30 2020, 22:34:52
Post #1

Мегаманьяк
***********
Group: Металариец
Posts: 1,837
Releases: 170
From: Omsk, Siberia
On Forums: 11 years 3 months
Thanks: 3714 time(s)
Russian Federation


(IMG:http://metalarea.org/images/audiocovers/2020_May/acov_tid338381_thumb.jpg)

*Artist: Myteri
*Album: Myteri
*Year: 2015
*Genre: Melodic Crust/Dark Hardcore
*Country: Sweden (IMG:http://metalarea.org/forum/style_images/flags/Sweden.png)
*Format: mp3@CBR320kbps
*Size: 64MB

Tracklist:
1. Intro 01:08
2. Bakom Stängda Dörrar 02:59
3. Act Right Now 02:29
4. Utan Mänskligt Värde 02:13
5. Deforestation 03:54
6. Från Vaggan Till Graven 03:47
7. Utbränd 02:19
8. Nykter 01:39
9. Girighetens Krig 01:59
10. Outro 04:30
******************************
Total playing time: 27:02



(IMG:http://metalarea.org/images/youtube.png)
(IMG:http://metalarea.org/images/youtube.png)

Extended info
John Persson - vocals
Johan 'Domarn' Andersson - guitar & vocals
Mattias Frödén - guitar
Franz Alfredsson - bass
Erik Larson - drums

Cello on 'Från Vaggan Till Graven' by Balder Lingegård
Additional vocals on 'Utbränd' by Gerda Berglund


Technical info
(IMG:http://metalarea.org/images/spectrogram/2020_May/95a2663c4cddab7f3cf1ef71e866bbac.png)
Input File: 04 Utan Mänskligt Värde.mp3
Channels : 2
Sample Rate : 44100
Precision : 16-bit
Duration : 00:02:13.39 = 5882411 samples = 10004.1 CDDA sectors
File Size : 5.42M
Bit Rate : 325k
Sample Encoding: MPEG audio (layer I, II or III)
Comments :
Title=Utan Mänskligt Värde
Artist=Myteri
Album=Myteri
Tracknumber=4
Year=2015
Genre=Crust/Punk



Register


Go to the top of the page
  Insert nick Quick quote
+Quote Post

Reply to this topicStart new topic
1 User(s) are reading this topic (1 Guests and 0 Anonymous Users)
0 Members:

 



- Lo-Fi Version Support form
Copyrights and abuse reports form
Time is now: 6th July 2020 - 09:44:19