Welcome Guest ( Log In | Register )

> И неформату есть предел.

Рэп/хип-хоп/шансон/поп удаляются. Для них есть свои порталы.

 
Reply to this topicStart new topic
> Rail - Arrival (1980), Hard Rock/Melodic Metal
post May 30 2020, 23:10:53
Post #1

Шесть Литров
******
Group: Металариец
Posts: 647
Releases: 125
On Forums: 1 year 5 months
Thanks: 1539 time(s)
Canada


(IMG:https://metalarea.org/images/audiocovers/2020_May/acov_tid338382_thumb.jpg)

*Artist: Rail
*Album: Arrival
*Year: 1980
*Genre: Hard Rock/Melodic Metal
*Country: United States (IMG:https://metalarea.org/forum/style_images/flags/United%20States.png)
*Format: mp3@CBR320kbps
*Size: 85MB

Tracklist:
1. Hello 02:11
2. Yes I Am 03:38
3. Cheater 04:09
4. Backseat Lovers 03:27
5. Gangbusters 03:53
6. Make Me 03:33
7. Bandit 04:19
8. Sirens 07:05
9. Seasons of Change 04:12
******************************
Total playing time: 36:27

Extended info
USA (Bellevue/Seattle, Washington)

Thanks to the original uploader Loverkiss.

https://www.discogs.com/artist/1880839-Rail-4

https://www.spirit-of-metal.com/en/discography/Rail/1

https://en.wikipedia.org/wiki/Rail_(band)
"Rail is an American rock band that achieved national fame after winning the grand prize of MTV's Basement Tapes competition in 1983. Before starting their recording career the group was well known in the Seattle area under the names "Rail & Company" and "Rail & Co."


Technical info
(IMG:https://metalarea.org/images/spectrogram/2020_May/b8d4793cf069602f82eb392a3223f043.png)
Input File: 06_rail_make_me_myzuka.mp3
Channels : 2
Sample Rate : 44100
Precision : 16-bit
Duration : 00:03:33.88 = 9432064 samples = 16040.9 CDDA sectors
File Size : 8.72M
Bit Rate : 326k
Sample Encoding: MPEG audio (layer I, II or III)
Comments :
Title=Make me
Artist=Rail
Album=Arrival
Tracknumber=06
Year=1980
Genre=Hard Rock / Melodic Metal



Register


Thanks:
Go to the top of the page
  Insert nick Quick quote
+Quote Post

Reply to this topicStart new topic
1 User(s) are reading this topic (1 Guests and 0 Anonymous Users)
0 Members:

 



- Lo-Fi Version Support form
Copyrights and abuse reports form
Time is now: 3rd July 2020 - 15:38:31