Welcome Guest ( Log In | Register )

> И неформату есть предел.

Рэп/хип-хоп/шансон/поп удаляются. Для них есть свои порталы.

> Striborg - The Concealed Torment [ep] (2020), Blackened Coldwave/Electronic (D)
post May 31 2020, 15:43:43
Post #1

Правь статус, ####!111
**************
Group: Металариец
Posts: 2,921
Releases: 2616
From: Одесса
On Forums: 12 years 1 month
Thanks: 25145 time(s)
Ukraine


(IMG:http://metalarea.org/images/audiocovers/2020_May/acov_tid338396_thumb.jpg)

*Artist: Striborg
*Album: The Concealed Torment [ep]
*Year: 2020
*Genre: Blackened Coldwave/Electronic
*Country: Australia (IMG:http://metalarea.org/forum/style_images/flags/Australia.png)
*Format: mp3@CBR320kbps
*Size: 40MB

Tracklist:
1. The Concealed Torment (Part 1) 09:00
2. The Concealed Torment (Part 2) 08:00
******************************
Total playing time: 17:00



Technical info
(IMG:http://metalarea.org/images/spectrogram/2020_May/a4229e5f01ecc8303545ea4e1c05bf30.png)
Input File: 01. The Concealed Torment (Part I).mp3
Channels : 2
Sample Rate : 44100
Precision : 16-bit
Duration : 00:09:00.30 = 23827098 samples = 40522.3 CDDA sectors
File Size : 21.6M
Bit Rate : 320k
Sample Encoding: MPEG audio (layer I, II or III)
Comments :
Title=The Concealed Torment (Part I)
Artist=Striborg
Album=The Concealed Torment (EP)
Tracknumber=1
Year=2020
Genre=Blackened Coldwave/Electronic



Register


Go to the top of the page
  Insert nick Quick quote
+Quote Post
 
Start new topic
Replies (1 - 6)
post May 31 2020, 20:53:17
Post #2

Три Литра
***
Group: Завсегдатай
Posts: 297
Releases: 0
On Forums: 13 years 2 months
Thanks: 99 time(s)
Russian Federation


Если можно, на yadi.sk или на cloud.mail.ru, пожалуйста...
Go to the top of the page
  Insert nick Quick quote
+Quote Post
post May 31 2020, 21:24:00
Post #3

Forever Underground
**************
Group: Металариец
Posts: 7,076
Releases: 0
On Forums: 5 years 2 months
Thanks: 8983 time(s)
Unknown


QUOTE(Torolv @ May 31 2020, 21:53:17) *
Если можно, на yadi.sk

Mirror - @CBR320kbps
Register

Lossless
Register


Thanks:
Go to the top of the page
  Insert nick Quick quote
+Quote Post
post Jun 2 2020, 13:02:06
Post #4

Три Литра
***
Group: Завсегдатай
Posts: 225
Releases: 0
On Forums: 4 months 2 weeks
Thanks: 132 time(s)
Unknown


От перемены мест слагаемых сумма не изменяется. Переобувшись из DSBM в электронику данный ван мэн бэнд не стал сочинять и играть музыку интересней или избави профессиональней. И если у раннего Striborg было несколько неплохих альбомов с правильной атмосферой, то все его поздние электронные потуги можно смело отправлять в мусор.


Thanks:
(2) Daale, KKK1488,
Go to the top of the page
  Insert nick Quick quote
+Quote Post
post Jun 7 2020, 15:54:03
Post #5
BAN
Banned till
Jul 10 2020, 19:07:34



ЦИТАТА(Der_Hexer @ Jun 2 2020, 15:02:06) *
От перемены мест слагаемых сумма не изменяется. Переобувшись из DSBM в электронику данный ван мэн бэнд не стал сочинять и играть музыку интересней или избави профессиональней. И если у раннего Striborg было несколько неплохих альбомов с правильной атмосферой, то все его поздние электронные потуги можно смело отправлять в мусор.


бро, посоветуй, что из раннего можно нужно прослухать?
Go to the top of the page
  Insert nick Quick quote
+Quote Post
post Jun 8 2020, 10:24:35
Post #6

Три Литра
***
Group: Завсегдатай
Posts: 225
Releases: 0
On Forums: 4 months 2 weeks
Thanks: 132 time(s)
Unknown


ЦИТАТА(KKK1488 @ Jun 7 2020, 15:54:03) *
бро, посоветуй, что из раннего можно нужно прослухать?


По моему скромному вкусу из его метал прошлого, рекомендую вот эти:
Embittered Darkness / Isle De Morts
Southwest Passage

и мелочевка на которую стоит обратить внимание:
Striborg / Xasthur split
Defuntos / Striborg - Florestas De Perpétua Solidão
Go to the top of the page
  Insert nick Quick quote
+Quote Post
post Jun 8 2020, 11:08:13
Post #7

**************
Group: Металариец
Posts: 2,368
Releases: 14
From: Казань
On Forums: 10 years 9 months
Thanks: 3253 time(s)
Russian Federation


Чувак мутит неплохую штуку, учитывая его "плодовитость" , в перспективе, если он пойдет в этом же ключе, есть шансы на отличный coldwave или данж.
Он понимает, что то, что он делал раньше -оно н.й никому не нужно сейчас, весь этот раффдепрессив, а вот хорошего данжа днем с огнем.
По релизу - вполне медитативный челлендж, вокал в тему, видно что старается, вердикт -годен.
Go to the top of the page
  Insert nick Quick quote
+Quote Post

Reply to this topicStart new topic
1 User(s) are reading this topic (1 Guests and 0 Anonymous Users)
0 Members:

 



- Lo-Fi Version Support form
Copyrights and abuse reports form
Time is now: 6th July 2020 - 09:33:41