Welcome Guest ( Log In | Register )

> Death Courier - Necrotic Verses (2020), Old School Death Metal
post May 31 2020, 22:38:12
Post #1

Правь статус, ####!111
**************
Group: Металариец
Posts: 22,586
Releases: 15693
From: Г.Харьков
On Forums: 8 years 2 months
Thanks: 288475 time(s)
Unknown


(IMG:https://metalarea.org/images/audiocovers/2020_May/acov_tid338421_thumb.jpg)

*Artist: Death Courier
*Album: Necrotic Verses
*Year: 2020
*Genre: Old School Death Metal
*Country: Greece (IMG:https://metalarea.org/forum/style_images/flags/Greece.png)
*Format: mp3@VBR245kbps
*Size: 60MB

Tracklist:
1. Necrotic Verses 03:40
2. Mourning Ecstasy 02:07
3. As Heaven Blends with Rot 02:47
4. When Death Fits to Skin 04:04
5. Interlude 02:02
6. Pillars of Murk 03:42
7. Morsimon Imar 02:34
8. Immune to Burial 03:15
9. Visceral Slice 03:19
10. Remnants 06:14
******************************
Total playing time: 33:44




Extended info
Bill Vocals, Bass (1987-1993, 2009-present)
George Guitars (2009-present)
See also: Vermingod
Ilias Iliopoulos Drums (2014-present)
See also: Vermingod, ex-From Zero to Hero




Technical info
(IMG:https://metalarea.org/images/spectrogram/2020_May/fa6fc71994c3e5de6f7ba64c1092ab62.png)
Input File: 04. When Death Fits To Skin.mp3
Channels : 2
Sample Rate : 44100
Precision : 16-bit
Duration : 00:04:03.70 = 10746994 samples = 18277.2 CDDA sectors
File Size : 7.47M
Bit Rate : 245k
Sample Encoding: MPEG audio (layer I, II or III)
Comments :
Title=When Death Fits To Skin
Artist=Death Courier
Album=Necrotic Verses
Tracknumber=4
Year=2020



Register


Go to the top of the page
  Insert nick Quick quote
+Quote Post
 
Start new topic
Replies (1 - 8)
post Jun 1 2020, 08:05:06
Post #2

Три Литра
***
Group: Завсегдатай
Posts: 284
Releases: 0
On Forums: 2 years 7 months
Thanks: 48 time(s)
Unknown


The album can be pre-ordered for just 1 Euro on their (IMG:style_emoticons/default/9.gif)
Go to the top of the page
  Insert nick Quick quote
+Quote Post
post Jun 2 2020, 21:10:25
Post #3

MDM-Thrash Metal
**************
Group: Металариец
Posts: 9,684
Releases: 940
From: Одесса
On Forums: 12 years 11 months
Thanks: 24182 time(s)
Ukraine


Очень приятные впечатления от альбома греческого коллектива!
Все вроде в рамках жанра, без особого новаторства, но сделано качественно и слушается с большим удовольствием. (IMG:style_emoticons/default/20.gif)


Thanks:
Go to the top of the page
  Insert nick Quick quote
+Quote Post
post Jun 3 2020, 00:47:30
Post #4

Join my religion, or die
**************
Group: Металариец
Posts: 10,763
Releases: 1533
From: Питера
On Forums: 10 years 10 months
Thanks: 19956 time(s)
Russian Federation


Несколько приблэкованый вокал напрягает...
Да и в целом, приблэкованность присутствует.
Но мне, почему то понравилось
Go to the top of the page
  Insert nick Quick quote
+Quote Post
post Jun 4 2020, 20:19:35
Post #5

Правь статус, ####!111
**************
Group: Металариец
Posts: 22,586
Releases: 15693
From: Г.Харьков
On Forums: 8 years 2 months
Thanks: 288475 time(s)
Unknown


320 81 mb
Register

FLAC (Tracks) 253 mb
Register


Go to the top of the page
  Insert nick Quick quote
+Quote Post
post Jun 5 2020, 17:23:21
Post #6

Правь статус, ####!111
**************
Group: Металариец
Posts: 22,586
Releases: 15693
From: Г.Харьков
On Forums: 8 years 2 months
Thanks: 288475 time(s)
Unknown


FLAC added!
Go to the top of the page
  Insert nick Quick quote
+Quote Post
post Jun 16 2020, 14:15:16
Post #7

Правь статус, ####!111
**************
Group: Металариец
Posts: 3,974
Releases: 14
From: Москва и МО
On Forums: 14 years 1 month
Thanks: 1165 time(s)
Russian Federation


Хороший честный олд. Честный, т.к. один из участников и правда олд. Все очень органично, достойно нескольких кругов прослушки.
Go to the top of the page
  Insert nick Quick quote
+Quote Post
post Jun 16 2020, 17:05:35
Post #8

Слава всем нам,например!
**************
Group: Металариец
Posts: 2,476
Releases: 33
From: Русская Москва
On Forums: 14 years 1 month
Thanks: 1321 time(s)
Russian Federation


ЦИТАТА(slack @ Jun 3 2020, 02:47:30) *
Несколько приблэкованый вокал напрягает...
Да и в целом, приблэкованность присутствует.
Но мне, почему то понравилось



можно уточнить - где тут приблэкованный вокал и в целом приблэкованность ?
Go to the top of the page
  Insert nick Quick quote
+Quote Post
post Aug 1 2020, 17:46:14
Post #9

Group: Подсевший
Posts: 36
Releases: 0
From: Kharkiv
On Forums: 1 year 2 months
Thanks: 15 time(s)
Ukraine


хорошая работа!. не поленился даже отписаться здесь! заходит "на ура"! все сделано со вкусом.
Go to the top of the page
  Insert nick Quick quote
+Quote Post

Reply to this topicStart new topic
2 User(s) are reading this topic (2 Guests and 0 Anonymous Users)
0 Members:

 



- Lo-Fi Version Support form
Copyrights and abuse reports form
Time is now: 3rd August 2020 - 09:39:43