Welcome Guest ( Log In | Register )

> И неформату есть предел.

Рэп/хип-хоп/шансон/поп удаляются. Для них есть свои порталы.

 
Reply to this topicStart new topic
> Myteri - Ruiner (2017), Melodic Crust/Dark Hardcore
post Jun 1 2020, 13:56:24
Post #1

Мегаманьяк
***********
Group: Металариец
Posts: 1,837
Releases: 170
From: Omsk, Siberia
On Forums: 11 years 3 months
Thanks: 3714 time(s)
Russian Federation


(IMG:http://metalarea.org/images/audiocovers/2020_Jun/acov_tid338436_thumb.jpg)

*Artist: Myteri
*Album: Ruiner
*Year: 2017
*Genre: Melodic Crust/Dark Hardcore
*Country: Sweden (IMG:http://metalarea.org/forum/style_images/flags/Sweden.png)
*Format: mp3@CBR320kbps
*Size: 91MB

Tracklist:
1. Ruiner 03:14
2. Mördare I Uniform 03:17
3. Han Gräver Sin Egen Grav 03:09
4. Justitiemord 02:52
5. Mörka Återvändsgränder 02:29
6. Dödens Hav 05:00
7. Lida I Tysthet 03:39
8. Hatets Fanbärare 03:18
9. Hämndens Timme Är Slagen 02:20
10. Vansinnets Industri 02:11
11. Deserter 01:59
12. Urholkningsprocessen 04:39
******************************
Total playing time: 38:13




(IMG:http://metalarea.org/images/youtube.png)
(IMG:http://metalarea.org/images/youtube.png)

Extended info
John Persson - vocals
Johan Andersson - guitars and vocals
Mattias Frödén - guitars and vocals
Franz Alfredsson - bass
Erik Larson - drums

Piano on 'Ruiner', viola on 'Justitiemord' and piano, viola and violin on 'Lida I Tysthet' by Daniel Viklund
Additional vocals on 'Dödens Hav' by Anders Pålsson


Technical info
(IMG:http://metalarea.org/images/spectrogram/2020_Jun/d27dfd71f16433a68e81441f4e531321.png)
Input File: 02 Mördare I Uniform.mp3
Channels : 2
Sample Rate : 44100
Precision : 16-bit
Duration : 00:03:17.44 = 8707280 samples = 14808.3 CDDA sectors
File Size : 7.97M
Bit Rate : 323k
Sample Encoding: MPEG audio (layer I, II or III)
Comments :
Title=Mördare I Uniform
Artist=Myteri
Album=Ruiner
Tracknumber=2
Year=2017
Genre=Crust/Punk



Register


Go to the top of the page
  Insert nick Quick quote
+Quote Post

Reply to this topicStart new topic
1 User(s) are reading this topic (1 Guests and 0 Anonymous Users)
0 Members:

 



- Lo-Fi Version Support form
Copyrights and abuse reports form
Time is now: 6th July 2020 - 10:05:13