Welcome Guest ( Log In | Register )

> Releases Upload / Добавление релизов

Добавить релиз тут / Click here to add release
Рекомендованные обменники / Recommended file shares

> Kybalion - Poisoned Ash [ep] (2020), Doom/Death Metal
post Jun 2 2020, 06:56:05
Post #1

Правь статус, ####!111
**************
Group: Металариец
Posts: 2,922
Releases: 2617
From: Одесса
On Forums: 12 years 1 month
Thanks: 25180 time(s)
Ukraine


(IMG:http://metalarea.org/images/audiocovers/2020_Jun/acov_tid338473_thumb.jpg)

*Artist: Kybalion
*Album: Poisoned Ash [ep]
*Year: 2020
*Genre: Doom/Death Metal
*Country: Australia (IMG:http://metalarea.org/forum/style_images/flags/Australia.png)
*Format: mp3@CBR320kbps
*Size: 64MB

Tracklist:
1. Wanderers 07:47
2. Background Man 05:53
3. Ravenous 03:57
4. Absinthe Tide 09:07
******************************
Total playing time: 26:44



Technical info
(IMG:http://metalarea.org/images/spectrogram/2020_Jun/c8194ef83eb6677b95a1e267cfdc17dc.png)
Input File: 02. Background Man.mp3
Channels : 2
Sample Rate : 44100
Precision : 16-bit
Duration : 00:05:53.38 = 15584102 samples = 26503.6 CDDA sectors
File Size : 14.2M
Bit Rate : 322k
Sample Encoding: MPEG audio (layer I, II or III)
Comments :
Title=Background Man
Artist=Kybalion
Album=Poisoned Ash (EP)
Tracknumber=2
Year=2020
Genre=Doom/Death Metal



Register


Go to the top of the page
  Insert nick Quick quote
+Quote Post
 
Start new topic
Replies (1 - 2)
post Jun 2 2020, 16:45:08
Post #2

Два Литра
**
Group: Завсегдатай
Posts: 110
Releases: 0
On Forums: 2 years 5 months
Thanks: 39 time(s)
Belarus


Стиль : Death Doom Metal. Вокал режет уши, настолько он плох. Да и мелодии не входили в планы авторов.
Go to the top of the page
  Insert nick Quick quote
+Quote Post
post Jun 2 2020, 18:14:52
Post #3

Ёлд ХеллоВяйне
Group Icon
Group: V.I.P
Posts: 30,027
Releases: 137
From: Питер
On Forums: 13 years 8 months
Thanks: 17907 time(s)
Russian Federation


Одна из самых дерьмовых драм-машинок, что я слышал.
Go to the top of the page
  Insert nick Quick quote
+Quote Post

Reply to this topicStart new topic
1 User(s) are reading this topic (1 Guests and 0 Anonymous Users)
0 Members:

 



- Lo-Fi Version Support form
Copyrights and abuse reports form
Time is now: 10th July 2020 - 10:52:24