Welcome Guest ( Log In | Register )

> И неформату есть предел.

Рэп/хип-хоп/шансон/поп удаляются. Для них есть свои порталы.

> Velde - Mellow Musings [compilation] (2020), Instrumental Post-Black Metal/Rock (D7)
post Jun 2 2020, 07:11:56
Post #1

Правь статус, ####!111
**************
Group: Металариец
Posts: 2,921
Releases: 2616
From: Одесса
On Forums: 12 years 1 month
Thanks: 25145 time(s)
Ukraine


(IMG:http://metalarea.org/images/audiocovers/2020_Jun/acov_tid338474_thumb.jpg)

*Artist: Velde
*Album: Mellow Musings [compilation]
*Year: 2020
*Genre: Instrumental Post-Black Metal/Rock
*Country: France (IMG:http://metalarea.org/forum/style_images/flags/France.png)
*Format: mp3@CBR320kbps
*Size: 44MB

Tracklist:
1. Ethereal 04:35
2. The Beginning_Void 04:24
3. Sleep 05:26
4. Empty City 03:38
******************************
Total playing time: 18:03



Extended info
FLAC RIP


Technical info
(IMG:http://metalarea.org/images/spectrogram/2020_Jun/5c8163e2fdb3e0bc6baccb5080562c96.png)
Input File: 01. Ethereal.mp3
Channels : 2
Sample Rate : 44100
Precision : 16-bit
Duration : 00:04:35.95 = 12169351 samples = 20696.2 CDDA sectors
File Size : 11.0M
Bit Rate : 320k
Sample Encoding: MPEG audio (layer I, II or III)
Comments :
Title=Ethereal
Artist=Velde
Album=Mellow Musings (Compilation)
Tracknumber=1
Year=2020
Genre=Instrumental Post-Black Metal/Rock



Register


Thanks:
Go to the top of the page
  Insert nick Quick quote
+Quote Post
 
Start new topic
Replies (1 - 1)
post Jun 2 2020, 18:07:01
Post #2

Два Литра
**
Group: Завсегдатай
Posts: 140
Releases: 0
From: минск сити
On Forums: 11 years 1 week
Thanks: 36 time(s)
Belarus


неформат однозначно.
Go to the top of the page
  Insert nick Quick quote
+Quote Post

Reply to this topicStart new topic
1 User(s) are reading this topic (1 Guests and 0 Anonymous Users)
0 Members:

 



- Lo-Fi Version Support form
Copyrights and abuse reports form
Time is now: 6th July 2020 - 08:57:24