Welcome Guest ( Log In | Register )

> И неформату есть предел.

Рэп/хип-хоп/шансон/поп удаляются. Для них есть свои порталы.

> Captain Black Beard - Sonic Forces (2020), AOR/Melodic Rock
post Jun 2 2020, 08:36:34
Post #1

Правь статус, ####!111
**************
Group: Металариец
Posts: 6,521
Releases: 6008
From: Lithuania
On Forums: 13 years 8 months
Thanks: 45154 time(s)
Lithuania


(IMG:https://metalarea.org/images/audiocovers/2020_Jun/acov_tid338475_thumb.jpg)

*Artist: Captain Black Beard
*Album: Sonic Forces
*Year: 2020
*Genre: AOR/Melodic Rock
*Country: Sweden (IMG:https://metalarea.org/forum/style_images/flags/Sweden.png)
*Format: mp3@CBR320kbps
*Size: 97MB

Tracklist:
1. Headlights
2. Lights & Shadows
3. Disco Volante
4. Tonight
5. Sonic Forces
6. Time To Deliver
7. Midnight Cruiser
8. Young Hearts
9. Gotham City
10. Emptiness
******************************
Total playing time: 41:53

(IMG:https://metalarea.org/images/youtube.png)
(IMG:https://metalarea.org/images/youtube.png)

Technical info
(IMG:https://metalarea.org/images/spectrogram/2020_Jun/c9f9ce4da4730d05d3697ba5659ae4d6.png)
Input File: 01 - Headlights.mp3
Channels : 2
Sample Rate : 44100
Precision : 16-bit
Duration : 00:03:35.66 = 9510386 samples = 16174.1 CDDA sectors
File Size : 8.70M
Bit Rate : 323k
Sample Encoding: MPEG audio (layer I, II or III)
Comments :
Title=Headlights
Artist=Captain Black Beard
Album=Sonic Forces
Tracknumber=1
Year=2020
Genre=Classical / Rock
Discnumber=1



Register


Go to the top of the page
  Insert nick Quick quote
+Quote Post
 
Start new topic
Replies (1 - 1)
post Jun 2 2020, 13:33:05
Post #2

Четыре Литра
****
Group: Металариец
Posts: 356
Releases: 0
From: Ташкент
On Forums: 12 years 4 months
Thanks: 102 time(s)
Uzbekistan


Первая песня шедевр.
Go to the top of the page
  Insert nick Quick quote
+Quote Post

Reply to this topicStart new topic
1 User(s) are reading this topic (1 Guests and 0 Anonymous Users)
0 Members:

 



- Lo-Fi Version Support form
Copyrights and abuse reports form
Time is now: 3rd July 2020 - 14:57:00