Welcome Guest ( Log In | Register )

> И неформату есть предел.

Рэп/хип-хоп/шансон/поп удаляются. Для них есть свои порталы.

> Arabs In Aspic - Madness And Magic (2020), Progressive Rock (D6)
post Jun 2 2020, 11:39:43
Post #1

Герберт Уэст
**************
Group: Металариец
Posts: 2,357
Releases: 75
From: Поморье
On Forums: 11 years 3 weeks
Thanks: 5028 time(s)
Russian Federation


(IMG:https://metalarea.org/images/audiocovers/2020_Jun/acov_tid338481_thumb.jpg)

*Artist: Arabs In Aspic
*Album: Madness And Magic
*Year: 2020
*Genre: Progressive Rock
*Country: Norway (IMG:https://metalarea.org/forum/style_images/flags/Norway.png)
*Format: mp3@CBR320kbps
*Size: 108MB

Tracklist:
1. I Vow To Thee, My Screen 08:22
2. Lullaby For Modern Kids, Part 1 08:19
3. Lullaby For Modern Kids, Part 2 02:06
4. High-Tech Parent 04:34
5. Madness And Magic 06:47
6. Heaven In Your Eye 16:45
******************************
Total playing time: 46:53

Preview 1

Extended info
Line Up:
- Jostein Smeby / guitars, vocals
- Stig Jorgensen / organs, vocals
- Erik Paulsen / bass, vocals
- Eskil Nyhus / drums, cymbals
- Alessandro G. Elide / percussion, gongs


Technical info
(IMG:https://metalarea.org/images/spectrogram/2020_Jun/607a1069ec712469aa27c2d21725384a.png)
Input File: 01-I vow to thee my screen.mp3
Channels : 2
Sample Rate : 44100
Precision : 16-bit
Duration : 00:08:22.51 = 22160515 samples = 37688 CDDA sectors
File Size : 20.1M
Bit Rate : 320k
Sample Encoding: MPEG audio (layer I, II or III)
Comments :
Title=I vow to thee my screen
Artist=Arabs in Aspic
Album=Madness and Magic
Tracknumber=1
Year=2020
Genre=Progressive Rock



Register


Go to the top of the page
  Insert nick Quick quote
+Quote Post
 
Start new topic
Replies (1 - 1)
post Jun 2 2020, 17:57:53
Post #2

hearer & reader
**************
Group: Металариец
Posts: 8,786
Releases: 144
From: Moscow
On Forums: 12 years 9 months
Thanks: 8923 time(s)
Russian Federation




Thanks:
Go to the top of the page
  Insert nick Quick quote
+Quote Post

Reply to this topicStart new topic
1 User(s) are reading this topic (1 Guests and 0 Anonymous Users)
0 Members:

 



- Lo-Fi Version Support form
Copyrights and abuse reports form
Time is now: 3rd July 2020 - 14:52:44