Welcome Guest ( Log In | Register )

> И неформату есть предел.

Рэп/хип-хоп/шансон/поп удаляются. Для них есть свои порталы.

> Empusae - Iter In Tenebris (2019), Dark Ambient/Post-Industrial (D8)
post Jun 2 2020, 18:07:09
Post #1

слушаю тишину
**************
Group: Металариец
Posts: 2,391
Releases: 48
On Forums: 2 years 5 months
Thanks: 2445 time(s)
Russian Federation


(IMG:https://metalarea.org/images/audiocovers/2020_Jun/acov_tid338494_thumb.jpg)

*Artist: Empusae
*Album: Iter In Tenebris
*Year: 2019
*Genre: Dark Ambient/Post-Industrial
*Country: Belgium (IMG:https://metalarea.org/forum/style_images/flags/Belgium.png)
*Format: mp3@CBR320kbps
*Size: 96MB

Tracklist:
1.Shabriri 08:25
2.Purah 12:39
3.Iso 11:12
4.Aesma 09:09
******************************
Total playing time: 41:25



Extended info


Technical info
(IMG:https://metalarea.org/images/spectrogram/2020_Jun/b52a22c7f3038f203150257010137b99.png)
Input File: 02. Purah.mp3
Channels : 2
Sample Rate : 44100
Precision : 16-bit
Duration : 00:12:39.11 = 33476795 samples = 56933.3 CDDA sectors
File Size : 30.4M
Bit Rate : 321k
Sample Encoding: MPEG audio (layer I, II or III)
Comments :
Title=Purah
Artist=Empusae
Album=Iter in Tenebris
Tracknumber=2
Year=2019



Register


Go to the top of the page
  Insert nick Quick quote
+Quote Post
 
Start new topic
Replies (1 - 3)
post Jun 6 2020, 07:44:09
Post #2

Три Литра
***
Group: Завсегдатай
Posts: 282
Releases: 1
On Forums: 10 years 7 months
Thanks: 101 time(s)
Russian Federation


Блин, дайте другой обменник. а то что-то с этого ни как не скачать(
Go to the top of the page
  Insert nick Quick quote
+Quote Post
post Jun 6 2020, 12:17:40
Post #3

слушаю тишину
**************
Group: Металариец
Posts: 2,391
Releases: 48
On Forums: 2 years 5 months
Thanks: 2445 time(s)
Russian Federation


Register


Thanks:
Go to the top of the page
  Insert nick Quick quote
+Quote Post
post Jun 12 2020, 05:58:10
Post #4

Шесть Литров
******
Group: Металариец
Posts: 559
Releases: 5
On Forums: 10 years 5 months
Thanks: 343 time(s)
Russian Federation


Хороший альбом, в духе последних работ Николаса.
Go to the top of the page
  Insert nick Quick quote
+Quote Post

Reply to this topicStart new topic
1 User(s) are reading this topic (1 Guests and 0 Anonymous Users)
0 Members:

 



- Lo-Fi Version Support form
Copyrights and abuse reports form
Time is now: 6th July 2020 - 09:58:47