Welcome Guest ( Log In | Register )

> Kult Mogił - Torn Away The Remains Of Dasein (2020), Death Metal
post Jun 4 2020, 20:36:02
Post #1

Правь статус, ####!111
**************
Group: Металариец
Posts: 29,275
Releases: 21491
From: Г.Харьков
On Forums: 10 years 1 week
Thanks: 443625 time(s)
Unknown


(IMG:https://metalarea.org/images/audiocovers/2020_Jun/acov_tid338564_thumb.jpg)

*Artist: Kult Mogił
*Album: Torn Away The Remains Of Dasein
*Year: 2020
*Genre: Death Metal
*Country: Poland (IMG:https://metalarea.org/forum/style_images/flags/Poland.png)
*Format: mp3@CBR320kbps
*Size: 79MB

Tracklist:
1. Hunger of Pride 05:43
2. White Death Implosion 04:57
3. Torment of Dasein 06:33
4. Idols in Blood 04:38
5. A Wax Reverie 06:24
6. Fountain of Affliction 05:37
******************************
Total playing time: 33:52



Extended info
Thisworld Outof Guitars
See also: Upon the Altar
The Rays Drums (2014-present)
See also: ex-Ortank, ex-Stillborn, ex-Heatenic Noiz Architect
Rzulty Guitars (2019-present)
See also: Totenmesse, ex-Hell United, ex-Ortank, ex-Eclypse, ex-Stillborn, ex-Deception
Deimos Vocals, Bass (2019-present)
See also: Horda, Lament, Naghamaet


Technical info
(IMG:https://metalarea.org/images/spectrogram/2020_Jun/aab705ba445f9944be4efc972d86bb88.png)
Input File: 04. Idols In Blood.mp3
Channels : 2
Sample Rate : 44100
Precision : 16-bit
Duration : 00:04:38.17 = 12267297 samples = 20862.8 CDDA sectors
File Size : 11.4M
Bit Rate : 329k
Sample Encoding: MPEG audio (layer I, II or III)
Comments :
Title=Idols In Blood
Artist=Kult Mogił
Album=Torn Away The Remains Of Dasein
Tracknumber=4
Year=2020
Genre=Death Metal



Register


Go to the top of the page
  Insert nick Quick quote
+Quote Post
 
Start new topic
Replies (1 - 3)
post Jun 6 2020, 16:33:19
Post #2

Group: Подсевший
Posts: 22
Releases: 0
On Forums: 2 years 3 months
Thanks: 2 time(s)
Russian Federation


не настоялись на коленях и не нарыдались у гроба
Go to the top of the page
  Insert nick Quick quote
+Quote Post
post Nov 29 2020, 18:56:33
Post #3

Crush! Kill! Destroy!
**************
Group: Металариец
Posts: 5,732
Releases: 15
From: Kaliningrad
On Forums: 14 years 6 months
Thanks: 5428 time(s)
Russian Federation


Есть здесь какой-то латиноамериканский задор. Поляки, не играющие бегемотовщину и азаратовщину - на вес сала с чесноком в наше нелегкое время.


Thanks:
(1) Daale,
Go to the top of the page
  Insert nick Quick quote
+Quote Post
post May 5 2021, 17:03:34
Post #4

Правь статус, ####!111
**************
Group: Металариец
Posts: 5,450
Releases: 574
From: MoscoW
On Forums: 15 years 5 months
Thanks: 8801 time(s)
Russian Federation


KULT MOGIŁ:


PAGAN Records:
Go to the top of the page
  Insert nick Quick quote
+Quote Post

Reply to this topicStart new topic
2 User(s) are reading this topic (2 Guests and 0 Anonymous Users)
0 Members:

 



- Lo-Fi Version Support form
Copyrights and abuse reports form
Time is now: 22nd May 2022 - 14:30:55