Welcome Guest ( Log In | Register )

> И неформату есть предел.

Рэп/хип-хоп/шансон/поп удаляются. Для них есть свои порталы.

> Grunt - Spiritual Eugenics (2020), Noise/Power Electronics (D26)
post Jun 5 2020, 18:12:32
Post #1

Into the Nothing
***********
Group: Металариец
Posts: 1,884
Releases: 17
On Forums: 10 years 6 months
Thanks: 3849 time(s)
Russian Federation


(IMG:http://metalarea.org/images/audiocovers/2020_Jun/acov_tid338593_thumb.jpg)

*Artist: Grunt
*Album: Spiritual Eugenics
*Year: 2020
*Genre: Noise/Power Electronics
*Country: Finland (IMG:http://metalarea.org/forum/style_images/flags/Finland.png)
*Format: mp3@CBR320kbps
*Size: 183MB

Tracklist:
1. Spiritual Eugenics 04:39
2. Maze Of Slaughter 04:46
3. Seed Of the Giants 04:07
4. Lubricant Of the Rebirth 03:02
5. Tehotuotettu Ihminen 03:09
6. Indestructible 03:28
7. Silent Weapons 04:08
8. Job 36 33 04:23
9. Judges 6:5 03:58
10. Troops Of Subversion 04:25
11. Inside the Walls 03:37
12. Never Forget 03:48
13. G.Nada 03:58
14. Eight O'Clock 04:05
15. The Heart Of Europe 04:56
16. Flesh Engine 03:07
17. Article 1. 02:40
18. Echo Words 05:57
19. Immeasurable 04:08
20. The Shield And the Limb 04:16
******************************
Total playing time: 1:20:37

(IMG:http://metalarea.org/images/youtube.png)

Extended info
2020. Freak Animal Records


Technical info
(IMG:http://metalarea.org/images/spectrogram/2020_Jun/bd6ff6178d33495f572f2cbb1cf16395.png)
Input File: 02 - Grunt - Maze of Slaughter.mp3
Channels : 2
Sample Rate : 44100
Precision : 16-bit
Duration : 00:04:46.37 = 12628917 samples = 21477.8 CDDA sectors
File Size : 11.6M
Bit Rate : 323k
Sample Encoding: MPEG audio (layer I, II or III)
Comments :
Title=Maze Of Slaughter
Artist=Grunt
Album=Spiritual Eugenics
Tracknumber=02/20
Year=2020
Genre=Noise/Power Electronics



Register


Go to the top of the page
  Insert nick Quick quote
+Quote Post
 
Start new topic
Replies (1 - 1)
post Jun 7 2020, 09:44:32
Post #2

Шесть Литров
******
Group: Металариец
Posts: 559
Releases: 5
On Forums: 10 years 5 months
Thanks: 343 time(s)
Russian Federation


(IMG:style_emoticons/default/pray.gif) (IMG:style_emoticons/default/pray.gif) (IMG:style_emoticons/default/pray.gif)
Go to the top of the page
  Insert nick Quick quote
+Quote Post

Reply to this topicStart new topic
1 User(s) are reading this topic (1 Guests and 0 Anonymous Users)
0 Members:

 



- Lo-Fi Version Support form
Copyrights and abuse reports form
Time is now: 3rd July 2020 - 13:54:24