Welcome Guest ( Log In | Register )

> И неформату есть предел.

Рэп/хип-хоп/шансон/поп удаляются. Для них есть свои порталы.

 
Reply to this topicStart new topic
> Reproacher - Tour Demo MMXII [demo] (2012), Chaotic Hardcore/Sludge (D4)
post Jun 6 2020, 12:28:50
Post #1

Мегаманьяк
***********
Group: Металариец
Posts: 1,838
Releases: 170
From: Omsk, Siberia
On Forums: 11 years 3 months
Thanks: 3718 time(s)
Russian Federation


(IMG:https://metalarea.org/images/audiocovers/2020_Jun/acov_tid338618_thumb.jpg)

*Artist: Reproacher
*Album: Tour Demo MMXII [demo]
*Year: 2012
*Genre: Chaotic Hardcore/Sludge
*Country: United States (IMG:https://metalarea.org/forum/style_images/flags/United%20States.png)
*Format: mp3@CBR320kbps
*Size: 46MB

Tracklist:
1. Negative Space 03:18
2. Benign 02:42
3. Breath/Life 02:20
4. Stuffed Full Of Lies 05:14
5. Shelter 02:34
6. Collapsed Lungs 03:29
******************************
Total playing time: 19:39






Extended info
Released on cassette by Dimlight Records.

Line-up:
Joel - vocals
TJ - guitar
Jon - bass
Jarret - drums


Technical info
(IMG:https://metalarea.org/images/spectrogram/2020_Jun/14f692aa9b07ba621ba964461f60e98b.png)
Input File: 01 Negative Space.mp3
Channels : 2
Sample Rate : 44100
Precision : 16-bit
Duration : 00:03:18.41 = 8749881 samples = 14880.8 CDDA sectors
File Size : 8.12M
Bit Rate : 328k
Sample Encoding: MPEG audio (layer I, II or III)
Comments :
Title=Negative Space
Artist=Reproacher
Album=Tour Demo MMXII
Tracknumber=1
Year=2012
Genre=Hardcore



Register


Go to the top of the page
  Insert nick Quick quote
+Quote Post

Reply to this topicStart new topic
1 User(s) are reading this topic (1 Guests and 0 Anonymous Users)
0 Members:

 



- Lo-Fi Version Support form
Copyrights and abuse reports form
Time is now: 9th July 2020 - 10:19:19