Welcome Guest ( Log In | Register )

> И неформату есть предел.

Рэп/хип-хоп/шансон/поп удаляются. Для них есть свои порталы.

 
Reply to this topicStart new topic
> Reproacher - Nothing To Save (2013), Chaotic Hardcore/Sludge (D5)
post Jun 8 2020, 08:45:15
Post #1

Мегаманьяк
***********
Group: Металариец
Posts: 1,837
Releases: 170
From: Omsk, Siberia
On Forums: 11 years 3 months
Thanks: 3714 time(s)
Russian Federation


(IMG:http://metalarea.org/images/audiocovers/2020_Jun/acov_tid338680_thumb.jpg)

*Artist: Reproacher
*Album: Nothing To Save
*Year: 2013
*Genre: Chaotic Hardcore/Sludge
*Country: United States (IMG:http://metalarea.org/forum/style_images/flags/United%20States.png)
*Format: mp3@CBR320kbps
*Size: 78MB

Tracklist:
1. Intro 01:45
2. Casemate 02:46
3. Sophists 02:32
4. Averse Arrest 02:04
5. Ballast 06:23
6. Marginal Being 03:01
7. Repose 00:48
8. The Champion Is Fucked 02:07
9. A New Dark Age 04:40
10. Crippled Wolves 02:57
11. New Skin 03:51
******************************
Total playing time: 32:59



(IMG:http://metalarea.org/images/youtube.png)

Technical info
(IMG:http://metalarea.org/images/spectrogram/2020_Jun/8a096e2037e8d80bd3b59c7e1851c311.png)
Input File: 02 - Casemate.mp3
Channels : 2
Sample Rate : 44100
Precision : 16-bit
Duration : 00:02:46.20 = 7329552 samples = 12465.2 CDDA sectors
File Size : 6.80M
Bit Rate : 327k
Sample Encoding: MPEG audio (layer I, II or III)
Comments :
Title=Casemate
Artist=Reproacher
Album=Nothing to Save
Tracknumber=02
Year=2013
Genre=Hardcore



Register


Go to the top of the page
  Insert nick Quick quote
+Quote Post

Reply to this topicStart new topic
1 User(s) are reading this topic (1 Guests and 0 Anonymous Users)
0 Members:

 



- Lo-Fi Version Support form
Copyrights and abuse reports form
Time is now: 6th July 2020 - 10:29:01