Welcome Guest ( Log In | Register )

> И неформату есть предел.

Рэп/хип-хоп/шансон/поп удаляются. Для них есть свои порталы.

> Powerwolf - The Symphony Of Sin (2020), Rock Opera (D)
post Jun 8 2020, 08:48:48
Post #1

Правь статус, ####!111
**************
Group: Металариец
Posts: 6,521
Releases: 6008
From: Lithuania
On Forums: 13 years 9 months
Thanks: 45165 time(s)
Lithuania


(IMG:https://metalarea.org/images/audiocovers/2020_Jun/acov_tid338681_thumb.jpg)

*Artist: Powerwolf
*Album: The Symphony Of Sin
*Year: 2020
*Genre: Rock Opera
*Country: Germany (IMG:https://metalarea.org/forum/style_images/flags/Germany.png)
*Format: mp3@CBR320kbps
*Size: 107MB

Tracklist:
1. Fire & Forgive 04:33
2. Demons Are a Girl’s Best Friend 03:39
3. Killers with the Cross 04:06
4. Incense and Iron 03:59
5. Where the Wild Wolves Have Gone 04:15
6. Stossgebet 03:55
7. Nightside of Siberia 03:55
8. The Sacrament of Sin 03:29
9. Venom of Venus 03:31
10. Nighttime Rebel 04:05
11. Fist by Fist (Sacralize or Strike) 03:31
12. Midnight Madonna 03:31
******************************
Total playing time: 46:29


(IMG:https://metalarea.org/images/youtube.png)

Technical info
(IMG:https://metalarea.org/images/spectrogram/2020_Jun/396ee8e184862f7d01b046a278960ac1.png)
Input File: 3 - Killers with the Cross (Orchestral Version).mp3
Channels : 2
Sample Rate : 44100
Precision : 16-bit
Duration : 00:04:06.59 = 10874443 samples = 18494 CDDA sectors
File Size : 9.96M
Bit Rate : 323k
Sample Encoding: MPEG audio (layer I, II or III)
Comments :
Title=Killers with the Cross (Orchestral Version)
Artist=Powerwolf
Album=The Symphony of Sin
Tracknumber=3
Year=2020
Genre=Metal
Discnumber=1



Register


Go to the top of the page
  Insert nick Quick quote
+Quote Post
 
Start new topic
Replies (1 - 5)
post Jun 8 2020, 12:54:12
Post #2

Dark Ambient Shoujo
**********
Group: Металариец
Posts: 1,282
Releases: 2
On Forums: 11 years 6 months
Thanks: 733 time(s)
Russian Federation


А чего в неформате? По превью вполне себе павер.
Go to the top of the page
  Insert nick Quick quote
+Quote Post
post Jun 8 2020, 13:13:41
Post #3

Правь статус, ####!111
**************
Group: Металариец
Posts: 46,731
Releases: 730
On Forums: 11 years 1 month
Thanks: 39389 time(s)
Russian Federation


ЦИТАТА(Dreamtale @ Jun 8 2020, 15:54:12) *
А чего в неформате? По превью вполне себе павер.


Дак потому что в тэгах рок поставили, а не мятал.

Воткнутли бы метал опера и за милую душу в форматец бы влетело.
Go to the top of the page
  Insert nick Quick quote
+Quote Post
post Jun 8 2020, 13:15:20
Post #4

Group: Подсевший
Posts: 22
Releases: 0
On Forums: 10 years 4 months
Thanks: 22 time(s)
Russian Federation


Вот и здесь нашелся блаженный, который, разбрызгивая кипяток из штанов, под видом нового релиза притащил второй бонусный диск с напалмовского делюкса двухлетней давности.
Go to the top of the page
  Insert nick Quick quote
+Quote Post
post Jun 8 2020, 14:24:38
Post #5

Ледоруб
**************
Group: Металариец
Posts: 25,955
Releases: 0
From: Санкт-Петербург
On Forums: 10 years 9 months
Thanks: 9045 time(s)
Russian Federation


ЦИТАТА(alrussian27 @ 8th June 2020 - 15:15:20) *
Вот и здесь нашелся блаженный, который, разбрызгивая кипяток из штанов, под видом нового релиза притащил второй бонусный диск с напалмовского делюкса двухлетней давности.

Lion, ты?
Go to the top of the page
  Insert nick Quick quote
+Quote Post
post Jun 8 2020, 21:50:17
Post #6

Group: Подсевший
Posts: 22
Releases: 0
On Forums: 10 years 4 months
Thanks: 22 time(s)
Russian Federation


Нет, не он.
Go to the top of the page
  Insert nick Quick quote
+Quote Post

Reply to this topicStart new topic
1 User(s) are reading this topic (1 Guests and 0 Anonymous Users)
0 Members:

 



- Lo-Fi Version Support form
Copyrights and abuse reports form
Time is now: 6th July 2020 - 09:10:55