Welcome Guest ( Log In | Register )

> И неформату есть предел.

Рэп/хип-хоп/шансон/поп удаляются. Для них есть свои порталы.

 
Reply to this topicStart new topic
> Aras - Ascension Of Aras [single] (2020), Electro/Epic Ambient/Instrumental
post Jun 8 2020, 10:33:35
Post #1

KPN 666
**************
Group: Металариец
Posts: 2,166
Releases: 833
From: Тегеран
On Forums: 11 years 5 days
Thanks: 13876 time(s)
Iran


(IMG:http://metalarea.org/images/audiocovers/2020_Jun/acov_tid338683_thumb.jpg)

*Artist: Aras
*Album: Ascension Of Aras [single]
*Year: 2020
*Genre: Electro/Epic Ambient/Instrumental
*Country: Iran (IMG:http://metalarea.org/forum/style_images/flags/Iran.png)
*Format: mp3@CBR320kbps
*Size: 20MB

Tracklist:
01. Ascension of Aras 08:37
******************************
Total playing time: 8:37



Technical info
(IMG:http://metalarea.org/images/spectrogram/2020_Jun/8ab1dd6d9366d916f106614ad710e909.png)
Input File: Aras - Ascension of Aras.mp3
Channels : 2
Sample Rate : 44100
Precision : 16-bit
Duration : 00:08:37.59 = 22825807 samples = 38819.4 CDDA sectors
File Size : 20.7M
Bit Rate : 320k
Sample Encoding: MPEG audio (layer I, II or III)
Comments :
Title=Ascension of Aras
Artist=Aras
Year=2020



Register


Go to the top of the page
  Insert nick Quick quote
+Quote Post

Reply to this topicStart new topic
1 User(s) are reading this topic (1 Guests and 0 Anonymous Users)
0 Members:

 



- Lo-Fi Version Support form
Copyrights and abuse reports form
Time is now: 6th July 2020 - 09:25:51