Welcome Guest ( Log In | Register )

> Paralydium - Worlds Beyond (2020), Progressive Metal
post Jun 11 2020, 11:38:27
Post #1

Serial Uploader
Group Icon
Group: V.I.P
Posts: 37,532
Releases: 35706
From: Lithuania
On Forums: 12 years 8 months
Thanks: 431036 time(s)
Lithuania


(IMG:https://metalarea.org/images/audiocovers/2020_Jun/acov_tid338804_thumb.jpg)

*Artist: Paralydium
*Album: Worlds Beyond
*Year: 2020
*Genre: Progressive Metal
*Country: Sweden (IMG:https://metalarea.org/forum/style_images/flags/Sweden.png)
*Format: mp3@CBR320kbps
*Size: 105MB

Tracklist:
01. Eternal Paralydium 01:50
02. Within the Sphere 05:15
03. Synergy 07:25
04. Finding the Paragon 05:38
05. Crystal of Infinity 04:22
06. Awakening 02:08
07. The Source 06:25
08. Into Divinity 05:06
09. Seeker of the Light 07:28
******************************
Total playing time: 45:37


(IMG:https://metalarea.org/images/youtube.png)

Technical info
(IMG:https://metalarea.org/images/spectrogram/2020_Jun/74bd569882099370afb839753f649fde.png)
Input File: 2 - Within the Sphere.mp3
Channels : 2
Sample Rate : 44100
Precision : 16-bit
Duration : 00:05:15.95 = 13933175 samples = 23695.9 CDDA sectors
File Size : 12.7M
Bit Rate : 322k
Sample Encoding: MPEG audio (layer I, II or III)
Comments :
Title=Within the Sphere
Artist=Paralydium
Album=Worlds Beyond
Tracknumber=2
Year=2020
Genre=Rock
Discnumber=1



Register


Go to the top of the page
  Insert nick Quick quote
+Quote Post
 
Start new topic
Replies (1 - 6)
post Jun 11 2020, 12:59:10
Post #2

hearer & reader
**************
Group: Металариец
Posts: 9,464
Releases: 169
From: Moscow
On Forums: 13 years 5 months
Thanks: 10343 time(s)
Russian Federation


Register


Go to the top of the page
  Insert nick Quick quote
+Quote Post
post Jun 13 2020, 13:41:02
Post #3

Dark Ambient Shoujo
**********
Group: Металариец
Posts: 1,339
Releases: 2
On Forums: 12 years 1 month
Thanks: 788 time(s)
Russian Federation


Тут замечены посоны из Dynazty. А сама работа качественная – прогнал несколько раз и слушаю дальше. Есть парочка хитов.


Thanks:
(1) smes,
Go to the top of the page
  Insert nick Quick quote
+Quote Post
post Aug 12 2020, 19:36:49
Post #4

21st Century Schizoid Man
**************
Group: Металариец
Posts: 6,728
Releases: 82
From: Moscow
On Forums: 12 years 9 months
Thanks: 5658 time(s)
Russian Federation


Шикардосный альбом! С большим удовольствием прослушал и переслушиваю.

Как я понимаю, это они же:
The Paralydium Project - The Paralydium Project [ep] (2015)


Thanks:
(1) smes,
Go to the top of the page
  Insert nick Quick quote
+Quote Post
post Nov 26 2020, 15:33:21
Post #5

Четыре Литра
****
Group: Металариец
Posts: 318
Releases: 3
From: Суворов
On Forums: 3 years 1 month
Thanks: 43 time(s)
Russian Federation


Всё красиво сыграно, хитовость чувствуется. Но блин, как-то, не зацепило.


Thanks:
(1) smes,
Go to the top of the page
  Insert nick Quick quote
+Quote Post
post Feb 23 2021, 10:01:38
Post #6

Правь статус, ####!111
**************
Group: Металариец
Posts: 3,780
Releases: 1
From: Рейх
On Forums: 14 years 6 months
Thanks: 953 time(s)
Ukraine


крутейший альбом от и до. Тут почти каждая песня хит. Обожаю такой прог на хеви основе
Go to the top of the page
  Insert nick Quick quote
+Quote Post
post Feb 24 2021, 06:18:16
Post #7

Пять Литров
*****
Group: Металариец
Posts: 476
Releases: 0
On Forums: 14 years 2 months
Thanks: 61 time(s)
Russian Federation


Мощный альбом. Вот такой прог я люблю, а не академическое пиликанье. Кто бы перезалил еще (IMG:style_emoticons/default/bye.gif)
Go to the top of the page
  Insert nick Quick quote
+Quote Post

Reply to this topicStart new topic
1 User(s) are reading this topic (1 Guests and 0 Anonymous Users)
0 Members:

 



- Lo-Fi Version Support form
Copyrights and abuse reports form
Time is now: 27th February 2021 - 17:14:15