Welcome Guest ( Log In | Register )

> И неформату есть предел.

Рэп/хип-хоп/шансон/поп удаляются. Для них есть свои порталы.

> Murgrind - The Fallen Kingdom (2019), Dungeon Synth/Medieval/Dark Ambient (D4)
post Jun 13 2020, 03:21:18
Post #1

Правь статус, ####!616
**************
Group: Металариец
Posts: 5,163
Releases: 3705
From: 55°35’N 38°08’E
On Forums: 11 years 11 months
Thanks: 69114 time(s)
Unknown


(IMG:http://metalarea.org/images/audiocovers/2020_Jun/acov_tid338895_thumb.jpg)

*Artist: Murgrind
*Album: The Fallen Kingdom
*Year: 2019
*Genre: Dungeon Synth/Medieval/Dark Ambient
*Country: Germany (IMG:http://metalarea.org/forum/style_images/flags/Germany.png)
*Format: mp3@CBR320kbps
*Size: 152MB

Tracklist:
1.Destroyer 03:25
2.Palace of Oblivion 07:37
3.Emerald Forest 02:29
4.Reign of Hate 04:50
5.The Return of the Wolf 09:20
6.Through the Nightland 08:15
7.Ride in the Gorge of Ice 04:43
8.Hills of the Thousand Rivers 07:27
9.Battle of Mar´khyr 07:10
10.March of the Iron Warrior 04:08
11.The End of this Journey 06:49
******************************
Total playing time: 1:06:13



Technical info
(IMG:http://metalarea.org/images/spectrogram/2020_Jun/e49a62b98bd9dc826c1e1d959572477e.png)
Input File: 01 Destroyer.mp3
Channels : 2
Sample Rate : 44100
Precision : 16-bit
Duration : 00:03:25.18 = 9048438 samples = 15388.5 CDDA sectors
File Size : 8.38M
Bit Rate : 327k
Sample Encoding: MPEG audio (layer I, II or III)
Comments :
Title=Destroyer
Artist=Murgrind
Album=The Fallen Kingdom
Tracknumber=1
Year=2019
Genre=Dungeon Synth



Register


Go to the top of the page
  Insert nick Quick quote
+Quote Post
 
Start new topic
Replies (1 - 1)
post Jun 16 2020, 14:56:10
Post #2

Три Литра
***
Group: Завсегдатай
Posts: 225
Releases: 0
On Forums: 4 months 1 week
Thanks: 132 time(s)
Unknown


В целом у Murgrind всегда получается достойный Dungeon Synth
Go to the top of the page
  Insert nick Quick quote
+Quote Post

Reply to this topicStart new topic
1 User(s) are reading this topic (1 Guests and 0 Anonymous Users)
0 Members:

 



- Lo-Fi Version Support form
Copyrights and abuse reports form
Time is now: 3rd July 2020 - 13:36:53