Welcome Guest ( Log In | Register )

> И неформату есть предел.

Рэп/хип-хоп/шансон/поп удаляются. Для них есть свои порталы.

 
Reply to this topicStart new topic
> Catholic Girls - Distant [ep] (2014), Chaotic Hardcore
post Jun 16 2020, 11:56:33
Post #1

Мегаманьяк
***********
Group: Металариец
Posts: 1,837
Releases: 170
From: Omsk, Siberia
On Forums: 11 years 3 months
Thanks: 3709 time(s)
Russian Federation


(IMG:http://metalarea.org/images/audiocovers/2020_Jun/acov_tid339002_thumb.jpg)

*Artist: Catholic Girls
*Album: Distant [ep]
*Year: 2014
*Genre: Chaotic Hardcore
*Country: United States (IMG:http://metalarea.org/forum/style_images/flags/United%20States.png)
*Format: mp3@CBR320kbps
*Size: 39MB

Tracklist:
1. Dead Fawn 02:34
2. Loveless 02:03
3. Sleepwalking 01:00
4. Sorry City 03:49
5. '96 01:48
6. Piston (bonus track) 03:40
******************************
Total playing time: 14:55





Extended info
American hardcore band from Denver, CO. released a 7" EP available through Crown & Throne Ltd.

Michael Hartgers - vocals
Nathan Hill - guitar
Tim Espiritu - guitar
Cole Paulson - bass
Andy Robbins - drums


Technical info
(IMG:http://metalarea.org/images/spectrogram/2020_Jun/1a370620e8cd0dc165c0c4f6cbfe788f.png)
Input File: 01 Dead Fawn.mp3
Channels : 2
Sample Rate : 44100
Precision : 16-bit
Duration : 00:02:34.65 = 6820197 samples = 11599 CDDA sectors
File Size : 6.24M
Bit Rate : 323k
Sample Encoding: MPEG audio (layer I, II or III)
Comments :
Title=Dead Fawn
Artist=Catholic Girls
Album=Distant
Tracknumber=1
Year=2014
Genre=Hardcore



Register


Go to the top of the page
  Insert nick Quick quote
+Quote Post

Reply to this topicStart new topic
1 User(s) are reading this topic (1 Guests and 0 Anonymous Users)
0 Members:

 



- Lo-Fi Version Support form
Copyrights and abuse reports form
Time is now: 3rd July 2020 - 14:53:48