Welcome Guest ( Log In | Register )

> И неформату есть предел.

Рэп/хип-хоп/шансон/поп удаляются. Для них есть свои порталы.

 
Reply to this topicStart new topic
> Break My Fucking Sky - Blind (2020), Post-Rock
post Jun 16 2020, 12:03:21
Post #1

Dark Ambient Shoujo
**********
Group: Металариец
Posts: 1,281
Releases: 2
On Forums: 11 years 6 months
Thanks: 731 time(s)
Russian Federation


(IMG:http://metalarea.org/images/audiocovers/2020_Jun/acov_tid339003_thumb.jpg)

*Artist: Break My Fucking Sky
*Album: Blind
*Year: 2020
*Genre: Post-Rock
*Country: Russian Federation (IMG:http://metalarea.org/forum/style_images/flags/Russian%20Federation.png)
*Format: mp3@CBR320kbps
*Size: 229MB

Tracklist:
01. Unwelcome 8:11
02. Medusas Are Like A Ghosts 7:48
03. The Letters Well Never Send 6:45
04. Agnosia 10:30
05. Before We Meet In The Dark 8:46
06. Doomsnight 4:46
07. Seven 8:20
08. Murphys Law 6:17
09. Blind 13:21
10. The Drowned Lake 9:19
11. Paper Eyes To Take Cover 8:26
12. It Was Forever Until It Ended 8:00
******************************
Total playing time: 1:40:27


ВКонтакте

Technical info
(IMG:http://metalarea.org/images/spectrogram/2020_Jun/485b7a250cf464c320c837f825ad143b.png)
Input File: 06 - Doomsnight.mp3
Channels : 2
Sample Rate : 44100
Precision : 16-bit
Duration : 00:04:45.82 = 12604838 samples = 21436.8 CDDA sectors
File Size : 11.4M
Bit Rate : 320k
Sample Encoding: MPEG audio (layer I, II or III)
Comments :
Title=Doomsnight
Artist=Break My Fucking Sky
Album=BLIND
Tracknumber=06
Year=2020
Genre=Post-Rock



Register


Thanks:
Go to the top of the page
  Insert nick Quick quote
+Quote Post

Reply to this topicStart new topic
1 User(s) are reading this topic (1 Guests and 0 Anonymous Users)
0 Members:

 



- Lo-Fi Version Support form
Copyrights and abuse reports form
Time is now: 3rd July 2020 - 13:55:59