Welcome Guest ( Log In | Register )

> И неформату есть предел.

Рэп/хип-хоп/шансон/поп удаляются. Для них есть свои порталы.

 
Reply to this topicStart new topic
> Ringarë - Where Cold Dwells And Winter Once Lay [demo] (2019), Ambient
post Jun 16 2020, 16:31:40
Post #1

Литр
*
Group: Подсевший
Posts: 62
Releases: 4
On Forums: 6 years 4 months
Thanks: 75 time(s)
Russian Federation


(IMG:http://metalarea.org/images/audiocovers/2020_Jun/acov_tid339017_thumb.jpg)

*Artist: Ringarë
*Album: Where Cold Dwells And Winter Once Lay [demo]
*Year: 2019
*Genre: Ambient
*Country: United States (IMG:http://metalarea.org/forum/style_images/flags/United%20States.png)
*Format: mp3@CBR320kbps
*Size: 91MB

Tracklist:
1. O'er Winters Shroud 18:40
2. A Paean for Endless Snow 19:41
******************************
Total playing time: 38:21



Technical info
(IMG:http://metalarea.org/images/spectrogram/2020_Jun/10064c511fc326d58254cae8165e3813.png)
Input File: 01 - O'er Winters Shroud.mp3
Channels : 2
Sample Rate : 44100
Precision : 16-bit
Duration : 00:18:40.12 = 49397160 samples = 84008.8 CDDA sectors
File Size : 45.0M
Bit Rate : 321k
Sample Encoding: MPEG audio (layer I, II or III)
Comments :
Title=o'er winters shroud
Artist=Ringarë
Album=Where Cold Dwells And Winter Once Lay (demo)
Tracknumber=1/2
Year=2019
Genre=Atmospheric black metal



Register


Go to the top of the page
  Insert nick Quick quote
+Quote Post

Reply to this topicStart new topic
1 User(s) are reading this topic (1 Guests and 0 Anonymous Users)
0 Members:

 



- Lo-Fi Version Support form
Copyrights and abuse reports form
Time is now: 6th July 2020 - 10:22:19