Welcome Guest ( Log In | Register )

> И неформату есть предел.

Рэп/хип-хоп/шансон/поп удаляются. Для них есть свои порталы.

> The High Crusade - Main Statement (2014), Rock
post Jun 17 2020, 21:39:35
Post #1

Шесть Литров
******
Group: Металариец
Posts: 647
Releases: 125
On Forums: 1 year 5 months
Thanks: 1539 time(s)
Canada


(IMG:https://metalarea.org/images/audiocovers/2020_Jun/acov_tid339070_thumb.jpg)

*Artist: The High Crusade
*Album: Main Statement
*Year: 2014
*Genre: Rock
*Country: United States (IMG:https://metalarea.org/forum/style_images/flags/United%20States.png)
*Format: mp3@CBR320kbps
*Size: 38MB

Tracklist:
1. Introduction 00:45
2. Dead Weight 03:14
3. Colby's Dead 02:36
4. Take Aim 01:56
5. Slice and Dice 02:29
6. Whiskey and Caffeine 02:53
7. Automation Alley 02:31
******************************
Total playing time: 16:24

Extended info
USA (Detroit,Michigan)

Adam Tatro [drummer]
Chris Plumb [Guitar and Vocals]
Rob Kaminski [Guitar and Vocals]

and from TNA Impact Wrestling -
Alex Shelley [Vocals]
Chris Sabin [Bass]
Petey Williams [Guitar]

Additional Contributions:
Kazuchika Okada: Introduction and Guitar
Matt Berger: Keys
Lara Tatro: Vocals


Technical info
(IMG:https://metalarea.org/images/spectrogram/2020_Jun/ee23a57b5709c8eca7bb793211de74c5.png)
Input File: 2. The High Crusade - Dead Weight.mp3
Channels : 2
Sample Rate : 44100
Precision : 16-bit
Duration : 00:03:14.41 = 8573657 samples = 14581 CDDA sectors
File Size : 7.91M
Bit Rate : 326k
Sample Encoding: MPEG audio (layer I, II or III)
Comments :
Title=Dead Weight
Artist=The High Crusade
Album=Main Statement
Tracknumber=2
Year=2020
Genre=Rock



Register


Thanks:
Go to the top of the page
  Insert nick Quick quote
+Quote Post
 
Start new topic
Replies (1 - 1)
post Jun 18 2020, 00:49:20
Post #2

Шесть Литров
******
Group: Металариец
Posts: 647
Releases: 125
On Forums: 1 year 5 months
Thanks: 1539 time(s)
Canada


FLAC
Register

320
Register
Go to the top of the page
  Insert nick Quick quote
+Quote Post

Reply to this topicStart new topic
1 User(s) are reading this topic (1 Guests and 0 Anonymous Users)
0 Members:

 



- Lo-Fi Version Support form
Copyrights and abuse reports form
Time is now: 3rd July 2020 - 15:17:44