Welcome Guest ( Log In | Register )

> Front Beast & Inferno - Messages Written In Blood/Graveyard Smell [split] (2007), Black Metal
post Nov 21 2007, 00:07:05
Post #1

Group Icon
Group: Curation team
Posts: 1,938
Releases: 145
On Forums: 13 years 8 months
Thanks: 15190 time(s)
Russian Federation


(IMG:http://metalarea.org/images/audiocovers/2012_Jun/acov_uid102610_b9282375014df1efbb5abe6f3e67eab5_thumb.jpg)

*Artist: Front Beast & Inferno
*Album: Messages Written In Blood / Graveyard Smell [split]
*Year: 2007
*Genre: Black Metal
*Country: Germany (IMG:http://metalarea.org/forum/style_images/flags/Germany.png) |Czech Rep. (IMG:http://metalarea.org/forum/style_images/flags/Czech%20Republic.png)
*Format: mp3@CBR320kbps
*Size: 36MB

Tracklist:
1. Front Beast - Messages Written In Blood 6:36
2. Inferno (Cze) - Graveyard Smell 5:30
*************************
Total playing time: 12:06

Extended info
7''EP, limited to 500 copies.
Vinyl-Rip, +scans


Technical info
(IMG:http://metalarea.org/images/spectrogram/2014_Nov/b744947e301c6c6db154d54f19ae8c5c.png)
Input File: A1.Front Beast - Messages Written in Blood.mp3
Channels : 2
Sample Rate : 44100
Precision : 16-bit
Duration : 00:06:40.46 = 17660110 samples = 30034.2 CDDA sectors
File Size : 16.0M
Bit Rate : 320k
Sample Encoding: MPEG audio (layer I, II or III)
Comments :
Title=Messages Written in Blood
Artist=Front Beast
Album=Messages Written in Blood / Graveyard Smell
Tracknumber=1
Year=2007
Genre=Black Metal


Register


Go to the top of the page
  Insert nick Quick quote
+Quote Post
 
Start new topic
Replies (1 - 4)
post Nov 21 2007, 04:11:03
Post #2

Group: Подсевший
Posts: 35
Releases: 0
On Forums: 12 years 10 months
Thanks: 8 time(s)
Chile


rapidshare!!
Go to the top of the page
  Insert nick Quick quote
+Quote Post
post Nov 21 2007, 05:30:33
Post #3

Три Литра
***
Group: Завсегдатай
Posts: 283
Releases: 0
From: Chavelot
On Forums: 13 years 2 months
Thanks: 12 time(s)
France


+1 (for rapidshare)
Go to the top of the page
  Insert nick Quick quote
+Quote Post
post Sep 19 2008, 08:29:44
Post #4

De Mysteriis Dom Sathanas
**************
Group: Металариец
Posts: 3,944
Releases: 63
From: Doom
On Forums: 11 years 10 months
Thanks: 3350 time(s)
Russian Federation


На фига вам рапида,если фолдер во много раз быстрее качает. (IMG:style_emoticons/default/25.gif)
Go to the top of the page
  Insert nick Quick quote
+Quote Post
post Nov 13 2014, 18:57:41
Post #5

Group Icon
Group: Curation team
Posts: 1,938
Releases: 145
On Forums: 13 years 8 months
Thanks: 15190 time(s)
Russian Federation


Vinyl-rip 320 + scans в шапке.
Go to the top of the page
  Insert nick Quick quote
+Quote Post

Reply to this topicStart new topic
1 User(s) are reading this topic (1 Guests and 0 Anonymous Users)
0 Members:

 



- Lo-Fi Version Support form
Copyrights and abuse reports form
Time is now: 26th May 2020 - 14:52:20