Welcome Guest ( Log In | Register )

> Правила / Rules

Тут только для чтения лежат низкобитрейтные (<192kbps) релизы, для которых есть аналоги в высокобитрейтных форумах.

Here goes (and stand in read only mode) low bitrate releases (<192kbps) which were already replaced by high bitrate releases in corresponding forums.

> Pyrrhon - Abscess Time (2020), Technical Death Metal (D7)
post Jun 23 2020, 17:37:26
Post #1

Правь статус, ####!111
**************
Group: Металариец
Posts: 2,921
Releases: 2616
From: Одесса
On Forums: 12 years 1 month
Thanks: 25145 time(s)
Ukraine


(IMG:http://metalarea.org/images/audiocovers/2020_Jun/acov_tid339284_thumb.jpg)

*Artist: Pyrrhon
*Album: Abscess Time
*Year: 2020
*Genre: Technical Death Metal
*Country: United States (IMG:http://metalarea.org/forum/style_images/flags/United%20States.png)
*Format: mp3@CBR320kbps
*Size: 126MB

Tracklist:
1. Abscess Time 05:11
2. Down at Liberty Ashes 04:56
3. Teuchnikskreis 01:01
4. The Lean Years 07:24
5. Another Day in Paradise 05:51
6. The Cost of Living 08:41
7. Overwinding 01:40
8. Human Capital 02:55
9. Cornered Animal 02:47
10. Solastagia 03:59
11. The State of Nature 04:12
12. Rat King Lifecycle 08:19
******************************
Total playing time: 56:56



Extended info
В ЛОУ

Line - up:

Erik Malave - Bass (Seputus, ex-Imperial Triumphant, ex-Artificial Brain (live))
Dylan DiLella - Guitars (Chad Thundercock)
Doug Moore - Vocals (Seputus, Weeping Sores, Glorious Depravity)
Steve Schwegler - Drums (Seputus, Weeping Sores)

(IMG:https://www.metal-archives.com/images/3/5/4/0/3540287548_photo.jpg?0144)


Technical info
(IMG:http://metalarea.org/images/spectrogram/2020_Jun/de6e2cd67d25a43dd6ccedb7b85059e9.png)
Input File: 11 - State Of Nature.mp3
Channels : 2
Sample Rate : 44100
Precision : 16-bit
Duration : 00:04:12.46 = 11133662 samples = 18934.8 CDDA sectors
File Size : 10.1M
Bit Rate : 320k
Sample Encoding: MPEG audio (layer I, II or III)
Comments :
Title=State Of Nature
Artist=Pyrrhon
Album=Abscess Time
Tracknumber=11
Year=2020
Genre=Technical Death Metal



Register


Go to the top of the page
  Insert nick Quick quote
+Quote Post
 
Start new topic
Replies (1 - 1)
post Jun 28 2020, 21:16:49
Post #2

http://rateyourmusic.com/~Ghostb
**************
Group: Металариец
Posts: 2,165
Releases: 0
From: Харьков
On Forums: 10 years 9 months
Thanks: 1006 time(s)
Ukraine


Никогда их особо не любил, но послушаю по привычке. Спасибо.
Go to the top of the page
  Insert nick Quick quote
+Quote Post

Причина закрытия (Хогги 28-06-2020):
Closed TopicStart new topic
2 User(s) are reading this topic (2 Guests and 0 Anonymous Users)
0 Members:

 



- Lo-Fi Version Support form
Copyrights and abuse reports form
Time is now: 6th July 2020 - 03:56:43