Welcome Guest ( Log In | Register )

> И неформату есть предел.

Рэп/хип-хоп/шансон/поп удаляются. Для них есть свои порталы.

 
Reply to this topicStart new topic
> The Path Of Memory - Hell Is Other People (2020), Gothic Rock/Death Rock
post Jun 23 2020, 21:35:14
Post #1

𝕻𝕬𝕹𝕬𝕮𝕰𝕬
********
Group: Металариец
Posts: 833
Releases: 484
On Forums: 8 years 1 month
Thanks: 8013 time(s)
Unknown


(IMG:https://metalarea.org/images/audiocovers/2020_Jun/acov_tid339289_thumb.jpg)

*Artist: The Path Of Memory
*Album: Hell Is Other People
*Year: 2020
*Genre: Gothic Rock/Death Rock
*Country: Switzerland (IMG:https://metalarea.org/forum/style_images/flags/Switzerland.png)
*Format: mp3@CBR320kbps
*Size: 79MB

Tracklist:
1. Don't Worry About Me 04:11
2. Rancid Song 02:47
3. Let Me Write A Song 02:53
4. Truth 01:48
5. I Tried And I Failed 03:03
6. It Hurts Me 03:16
7. A Thousand Days And Nights 03:32
8. Alone, Alive 03:36
9. Oppressé De Rentrer 03:16
10. Locked Away 04:10
11. I Skulled The World 02:17
******************************
Total playing time: 34:49



Extended info
Gothrock/Deathrock/Darkrock side project of Bornyhake (Ancient Moon, Astral Silence, Borgne, Cakewet, Cryfemal, Diurnal, Excreta, Lypektomy, Manii, Porifice, Pure, ex-Gerbophilia, ex-Haine, ex-Krigar, ex-Organ Trails, Decomposition, Snorre, The Two Boys Sandwich Club, ex-ChokingOnBile, ex-Kawir, ex-Oculus, ex-Ravnkald, ex-Serpens Luminis, ex-Darvaza (live), ex-Deathrow (live), ex-Schammasch (live), ex-Ass of Spades, ex-Jante Alu).
Released by Iron Bonehead Productions.


Technical info
(IMG:https://metalarea.org/images/spectrogram/2020_Jun/4687afa4102cc4a150865f208216e5a4.png)
Input File: 03 - Let Me Write A Song.mp3
Channels : 2
Sample Rate : 44100
Precision : 16-bit
Duration : 00:02:53.91 = 7669387 samples = 13043.2 CDDA sectors
File Size : 7.04M
Bit Rate : 324k
Sample Encoding: MPEG audio (layer I, II or III)
Comments :
Title=Let Me Write A Song
Artist=The Path Of Memory
Album=Hell Is Other People
Tracknumber=3
Year=2020
Genre=Gothic Rock/Death Rock
Discnumber=1



Register


Go to the top of the page
  Insert nick Quick quote
+Quote Post

Reply to this topicStart new topic
1 User(s) are reading this topic (1 Guests and 0 Anonymous Users)
0 Members:

 



- Lo-Fi Version Support form
Copyrights and abuse reports form
Time is now: 6th July 2020 - 09:58:08