Welcome Guest ( Log In | Register )

> Releases Upload / Добавление релизов

Добавить релиз тут / Click here to add release
Рекомендованные обменники / Recommended file shares

> Deadline - Cathedral Point (2020), Heavy Metal
post Jun 26 2020, 01:47:52
Post #1

Правь статус, ####!111
**************
Group: Металариец
Posts: 22,295
Releases: 15439
From: Г.Харьков
On Forums: 8 years 1 month
Thanks: 282452 time(s)
Unknown


(IMG:https://metalarea.org/images/audiocovers/2020_Jun/acov_tid339356_thumb.jpg)

*Artist: Deadline
*Album: Cathedral Point
*Year: 2020
*Genre: Heavy Metal
*Country: South Africa (IMG:https://metalarea.org/forum/style_images/flags/South%20Africa.png)
*Format: mp3@CBR320kbps
*Size: 102MB

Tracklist:
1. Cathedral Point 01:36
2. Hope n' Pray 05:39
3. Dark Divination 04:08
4. Before I Die 04:58
5. High-Tops & Bullet Belts 06:18
6. Only the Strong Survive 04:13
7. Clandestine 05:29
8. Shapeshifter 05:45
9. The Watchers 05:04
******************************
Total playing time: 43:10




Extended info
Jessy Switchblade - Vocals
Judge Mental - Guitar
Baz Steel - Bass
Dizzy Styxx - Drums
Raven Chaos - Guitar
Skullprit - Guitar


Technical info
(IMG:https://metalarea.org/images/spectrogram/2020_Jun/4973c3b314cbb37650f927ceb9560f59.png)
Input File: 05 High-Tops & Bullet Belts.mp3
Channels : 2
Sample Rate : 44100
Precision : 16-bit
Duration : 00:06:18.74 = 16702610 samples = 28405.8 CDDA sectors
File Size : 15.5M
Bit Rate : 328k
Sample Encoding: MPEG audio (layer I, II or III)
Comments :
Title=High-Tops & Bullet Belts
Artist=Deadline
Album=Cathedral Point
Tracknumber=5/9
Year=2020-20-20
Genre=Alternative
Discnumber=1/1



Register


Go to the top of the page
  Insert nick Quick quote
+Quote Post
 
Start new topic
Replies (1 - 7)
post Jun 26 2020, 09:40:06
Post #2

Шесть Литров
******
Group: Металариец
Posts: 608
Releases: 0
On Forums: 11 years 3 days
Thanks: 149 time(s)
Ukraine


Хороший альбом-спасибо большое!!!


Go to the top of the page
  Insert nick Quick quote
+Quote Post
post Jun 26 2020, 18:32:14
Post #3

MDM-Thrash Metal
**************
Group: Металариец
Posts: 9,635
Releases: 915
From: Одесса
On Forums: 12 years 10 months
Thanks: 23640 time(s)
Ukraine


ЦИТАТА(Samaritianin @ Jun 26 2020, 03:47:52) *
*Country: South Africa

Очень достойно, я приятно удивлен! Я так подразумеваю, что писались где-то в Европе, но материал преподнесен очень даже неплохо.
Go to the top of the page
  Insert nick Quick quote
+Quote Post
post Jun 26 2020, 19:17:56
Post #4

Перевозчик
**************
Group: Металариец
Posts: 3,180
Releases: 0
On Forums: 12 years 4 days
Thanks: 713 time(s)
Russian Federation


Верхняя часть фотки коллектива на бэндкемпе намекает нам как бы.
Go to the top of the page
  Insert nick Quick quote
+Quote Post
post Jun 26 2020, 20:19:19
Post #5

Правь статус, ####!111
**************
Group: Металариец
Posts: 22,295
Releases: 15439
From: Г.Харьков
On Forums: 8 years 1 month
Thanks: 282452 time(s)
Unknown


ЦИТАТА(zauber1 @ 26th June 2020 - 19:17:56) *
Верхняя часть фотки коллектива на бэндкемпе намекает нам как бы

и на что она вам намекает?
Go to the top of the page
  Insert nick Quick quote
+Quote Post
post Jun 26 2020, 20:42:59
Post #6

Маньяк
**********
Group: Металариец
Posts: 1,324
Releases: 0
From: Russian Federation - St.Petersburg
On Forums: 11 years 4 months
Thanks: 335 time(s)
Russian Federation


Африканцы в кайф, задорно шуруют! (IMG:style_emoticons/default/banana.gif)


Go to the top of the page
  Insert nick Quick quote
+Quote Post
post Jun 27 2020, 05:56:25
Post #7

hearer & reader
**************
Group: Металариец
Posts: 8,797
Releases: 144
From: Moscow
On Forums: 12 years 10 months
Thanks: 8964 time(s)
Russian Federation


ЦИТАТА(zauber1 @ Jun 26 2020, 21:17:56) *
Верхняя часть фотки коллектива на бэндкемпе намекает нам как бы.

Думаю, намекает их дебютник, тоже очень неплохой.
Go to the top of the page
  Insert nick Quick quote
+Quote Post
post Jun 29 2020, 22:09:31
Post #8
BAN
Banned till
Jul 16 2020, 15:35:27



Свежо.
Go to the top of the page
  Insert nick Quick quote
+Quote Post

Reply to this topicStart new topic
2 User(s) are reading this topic (2 Guests and 0 Anonymous Users)
0 Members:

 



- Lo-Fi Version Support form
Copyrights and abuse reports form
Time is now: 9th July 2020 - 09:37:23