Welcome Guest ( Log In | Register )

> Releases Upload / Добавление релизов

Добавить релиз тут / Click here to add release
Рекомендованные обменники / Recommended file shares

> Brujeria - Covid-666 [single] (2020), Death Metal/Grindcore (D)
post Jun 26 2020, 21:24:56
Post #1

MDM-Thrash Metal
**************
Group: Металариец
Posts: 9,635
Releases: 915
From: Одесса
On Forums: 12 years 10 months
Thanks: 23639 time(s)
Ukraine


(IMG:http://metalarea.org/images/audiocovers/2020_Jun/acov_tid339377_thumb.png)

*Artist: Brujeria
*Album: Covid-666 [single]
*Year: 2020
*Genre: Death Metal/Grindcore
*Country: International (IMG:http://metalarea.org/forum/style_images/flags/International.png)
*Format: mp3@CBR320kbps
*Size: 17MB

Tracklist:
1. COVID-666 03:21
2. Cocaina (Eric Clapton cover) 03:30
******************************
Total playing time: 6:51

(IMG:http://metalarea.org/images/youtube.png)


Extended info
Fantasma Bass, Vocals (backing) (1989-present), Drums (1989-1992)
See also: ex-Down by Law, ex-Foreign Object, ex-Indemnifier, ex-Nip Drivers, ex-Punk Rock Vatos, ex-Santa Sabbath, ex-Slowrider
Hongo Guitars, Bass (1989-present)
See also: Absolute Power, Bent Sea, Born to Murder the World, Hicks Kinison, Insidious Disease, Lock Up, Menace, Napalm Death, Tronos, Venomous Concept, War of the Second Dragon, ex-Azagthoth, ex-Intestinal Infestation, ex-Meathook Seed, ex-Unseen Terror, ex-Warhammer, Blood from the Soul, Dark Sky Burial, Mutation, ex-Liquid Graveyard, ex-Anaal Nathrakh (live), ex-Drop Dead, ex-Malformed Earthborn
Pinche Peach Samples, Vocals (backing) (1989-present)
See also: ex-Indemnifier
Juan Brujo Vocals (lead) (1989-present)
Hongo Jr. Drums (2003-2005, 2016-present)
See also: Ancient, Liquid Graveyard, Twilight of the Gods, Noctis Imperium (live), Nuclear Assault (live), ex-Monolith, ex-Catalepsy, Monstrance, United Forces, ex-Atrocity, ex-Cradle of Filth, ex-Dimmu Borgir, ex-Leaves' Eyes, ex-Lock Up, ex-Obskkvlt, ex-Old Man's Child, ex-Sadistic Intent, ex-Testament, ex-Anaal Nathrakh (live), ex-Anathema (live), ex-Benediction (live), ex-Borknagar (live), ex-Cancer (live), ex-Criminal (live), ex-Exodus (live), ex-Gorgoroth (live), ex-Nightrage (live), ex-Possessed (live), ex-Voices (live), ex-Cerebral Fix (live), ex-Driven by Suffering
El Sangrón Vocals (2015-present)
El Criminal Guitars (2016-present)
See also: Criminal, Lock Up, Pentagram Chile, Vampyromorpha (live), ex-Fallout, United Forces, ex-Inner Sanctvm, ex-Twilight of the Gods (live)


Technical info
(IMG:http://metalarea.org/images/spectrogram/2020_Jun/a19f95c4888e9e2e310085a2b9974f00.png)
Input File: 01 Covid-666.mp3
Channels : 2
Sample Rate : 44100
Precision : 16-bit
Duration : 00:03:22.02 = 8909038 samples = 15151.4 CDDA sectors
File Size : 8.70M
Bit Rate : 345k
Sample Encoding: MPEG audio (layer I, II or III)
Comments :
Title=Covid-666
Artist=Brujería
Album=Covid-666
Tracknumber=1/2
Year=2020-20-20
Genre=Death Metal
Discnumber=1/1



Register


Go to the top of the page
  Insert nick Quick quote
+Quote Post
 
Start new topic
Replies (1 - 6)
post Jun 27 2020, 09:58:55
Post #2

melofags sniper
**************
Group: Металариец
Posts: 5,162
Releases: 0
On Forums: 12 years 4 months
Thanks: 4031 time(s)
Unknown


Embarrassing...


Go to the top of the page
  Insert nick Quick quote
+Quote Post
post Jun 27 2020, 13:11:41
Post #3

Only Death is Real
**********
Group: Металариец
Posts: 1,103
Releases: 0
From: R'lyeh
On Forums: 3 years 6 months
Thanks: 1216 time(s)
Poland


There are bands which sing about Black Death and Ebola, so why not COVID? (IMG:style_emoticons/default/hmm.gif)


Thanks:
Go to the top of the page
  Insert nick Quick quote
+Quote Post
post Jun 27 2020, 13:20:54
Post #4

melofags sniper
**************
Group: Металариец
Posts: 5,162
Releases: 0
On Forums: 12 years 4 months
Thanks: 4031 time(s)
Unknown


QUOTE(wolverine @ Jun 27 2020, 14:11:41) *
There are bands which sing about Black Death and Ebola, so why not COVID? (IMG:style_emoticons/default/hmm.gif)

It's like singing about flu (IMG:style_emoticons/default/1488.gif)

Yes, as long as they are good, which isnot the case here (IMG:style_emoticons/default/21.gif)


Go to the top of the page
  Insert nick Quick quote
+Quote Post
post Jun 27 2020, 13:25:15
Post #5

Only Death is Real
**********
Group: Металариец
Posts: 1,103
Releases: 0
From: R'lyeh
On Forums: 3 years 6 months
Thanks: 1216 time(s)
Poland


QUOTE(babanguida @ Jun 27 2020, 14:20:54) *
It's like singing about flu (IMG:style_emoticons/default/1488.gif)


Flu may be dangerous and deadly disease. Perfect topic for Death Metal bands. (IMG:style_emoticons/default/15.gif)

QUOTE(babanguida @ Jun 27 2020, 14:20:54) *
Yes, as long as they are good, which isnot the case here (IMG:style_emoticons/default/21.gif)


Yes. (IMG:style_emoticons/default/1488.gif)

I think Black Death is more interesting topic when it comes to music.


Thanks:
Go to the top of the page
  Insert nick Quick quote
+Quote Post
post Jun 27 2020, 20:24:37
Post #6

De Mysteriis Dom Sathanas
**************
Group: Металариец
Posts: 3,991
Releases: 63
From: Doom
On Forums: 11 years 11 months
Thanks: 3395 time(s)
Russian Federation


Ниче так клипчик , заряжает (IMG:style_emoticons/default/1488.gif)


Thanks:
Go to the top of the page
  Insert nick Quick quote
+Quote Post
post Jun 29 2020, 22:08:37
Post #7

Добрейшей души Мегаманьяк
***********
Group: Металариец
Posts: 1,640
Releases: 0
From: Bashkortostan, Өфө
On Forums: 12 years 4 months
Thanks: 731 time(s)
Russian Federation


Cocaina тока кавёр на песню J.J. Cale "Cocaine", а Эрик Клэптон сам её скаверил.
Go to the top of the page
  Insert nick Quick quote
+Quote Post

Reply to this topicStart new topic
2 User(s) are reading this topic (2 Guests and 0 Anonymous Users)
0 Members:

 



- Lo-Fi Version Support form
Copyrights and abuse reports form
Time is now: 9th July 2020 - 09:19:40