Welcome Guest ( Log In | Register )

> Releases Upload / Добавление релизов

Добавить релиз тут / Click here to add release
Рекомендованные обменники / Recommended file shares

> Inpathos - Divinity (2020), Melodic Death Metal
post Jun 27 2020, 00:02:33
Post #1

Правь статус, ####!111
**************
Group: Металариец
Posts: 22,266
Releases: 15420
From: Г.Харьков
On Forums: 8 years 1 month
Thanks: 281821 time(s)
Unknown


(IMG:https://metalarea.org/images/audiocovers/2020_Jun/acov_tid339379_thumb.jpg)

*Artist: Inpathos
*Album: Divinity
*Year: 2020
*Genre: Melodic Death Metal
*Country: United States (IMG:https://metalarea.org/forum/style_images/flags/United%20States.png)
*Format: mp3@CBR320kbps
*Size: 106MB

Tracklist:
1. Divinity 05:48
2. Midnight 06:10
3. The Void Above 05:14
4. The Silence Below 06:58
5. Vanity 05:35
6. Eternal 01:44
7. Winter Lantern 04:56
8. Divide 07:44
******************************
Total playing time: 44:09




Extended info
Jordan Siu (vocals)
Benjamin Crabill (vocals, bass)
Anthony Nelson (lead+rhythm guitars)
Nabil Reed-Boulos (drums)
Adonis Reed-Boulos (lead+rhythm guitars)



Technical info
(IMG:https://metalarea.org/images/spectrogram/2020_Jun/bb0f45a78cc16637d9d58681f1acf02c.png)
Input File: 04 The Silence Below.mp3
Channels : 2
Sample Rate : 44100
Precision : 16-bit
Duration : 00:06:58.19 = 18442223 samples = 31364.3 CDDA sectors
File Size : 17.3M
Bit Rate : 331k
Sample Encoding: MPEG audio (layer I, II or III)
Comments :
Title=The Silence Below
Artist=Inpathos
Album=Divinity
Tracknumber=4/8
Year=2020-20-20
Genre=Metal
Discnumber=1/1



Register


Go to the top of the page
  Insert nick Quick quote
+Quote Post
 
Start new topic
Replies (1 - 1)
post Jun 27 2020, 10:46:06
Post #2

Ъ
**************
Group: Металариец
Posts: 10,140
Releases: 9
On Forums: 11 years 5 months
Thanks: 2037 time(s)
Sweden


Гаражный третьесорт.
Go to the top of the page
  Insert nick Quick quote
+Quote Post

Reply to this topicStart new topic
1 User(s) are reading this topic (1 Guests and 0 Anonymous Users)
0 Members:

 



- Lo-Fi Version Support form
Copyrights and abuse reports form
Time is now: 6th July 2020 - 03:26:37