Welcome Guest ( Log In | Register )

> Releases Upload / Добавление релизов

Добавить релиз тут / Click here to add release
Рекомендованные обменники / Recommended file shares

> Thrasherhell - Agente Del Caos (2019), Old School Thrash Metal
post Jun 27 2020, 01:47:51
Post #1

Правь статус, ####!111
**************
Group: Металариец
Posts: 22,266
Releases: 15420
From: Г.Харьков
On Forums: 8 years 1 month
Thanks: 281823 time(s)
Unknown


(IMG:https://metalarea.org/images/audiocovers/2020_Jun/acov_tid339380_thumb.jpg)

*Artist: Thrasherhell
*Album: Agente Del Caos
*Year: 2019
*Genre: Old School Thrash Metal
*Country: Venezuela (IMG:https://metalarea.org/forum/style_images/flags/Venezuela.png)
*Format: mp3@CBR320kbps
*Size: 94MB

Tracklist:
1. Político 03:23
2. Falsos profetas 03:27
3. Policía 06:11
4. Violencia 05:04
5. Ley de vida 04:08
6. Ratas callejeras 03:39
7. Agentes del caos 04:33
8. ThrasherHell 03:48
9. Resistencia 04:19
******************************
Total playing time: 38:32


(IMG:https://metalarea.org/images/youtube.png)

Extended info
José Rico Bass
See also: Overground, ex-Survival Horror
Christian Pimentel Drums
See also: HellBroken, Collateral Detriment
Francisco Ramones Guitars
See also: Heavenwar, ID Hardcore
Miguel Ramirez Guitars
See also: Predator T
Emilio Fernández Vocals (2012-present)




Technical info
(IMG:https://metalarea.org/images/spectrogram/2020_Jun/fa6a233cd56635153ad301feb8333d91.png)
Input File: 04 Violencia.mp3
Channels : 2
Sample Rate : 44100
Precision : 16-bit
Duration : 00:05:05.07 = 13453763 samples = 22880.5 CDDA sectors
File Size : 12.7M
Bit Rate : 334k
Sample Encoding: MPEG audio (layer I, II or III)
Comments :
Title=Violencia
Artist=Thrasherhell
Album=AGENTE DEL CAOS
Tracknumber=4/9
Year=2019-20-20
Genre=Thrash Metal
Discnumber=1/1



Register


Go to the top of the page
  Insert nick Quick quote
+Quote Post
 
Start new topic
Replies (1 - 1)
post Jun 28 2020, 23:29:04
Post #2

Четыре Литра
****
Group: Металариец
Posts: 327
Releases: 0
From: Kyiv
On Forums: 8 years 2 months
Thanks: 132 time(s)
Ukraine


Годно!
Go to the top of the page
  Insert nick Quick quote
+Quote Post

Reply to this topicStart new topic
1 User(s) are reading this topic (1 Guests and 0 Anonymous Users)
0 Members:

 



- Lo-Fi Version Support form
Copyrights and abuse reports form
Time is now: 6th July 2020 - 04:00:37