Welcome Guest ( Log In | Register )

> Releases Upload / Добавление релизов

Добавить релиз тут / Click here to add release
Рекомендованные обменники / Recommended file shares

> Savage Blood - Downfall (2020), Heavy Metal
post Jun 27 2020, 02:33:44
Post #1

Правь статус, ####!111
**************
Group: Металариец
Posts: 22,266
Releases: 15420
From: Г.Харьков
On Forums: 8 years 1 month
Thanks: 281823 time(s)
Unknown


(IMG:https://metalarea.org/images/audiocovers/2020_Jun/acov_tid339381_thumb.jpg)

*Artist: Savage Blood
*Album: Downfall
*Year: 2020
*Genre: Heavy Metal
*Country: Germany (IMG:https://metalarea.org/forum/style_images/flags/Germany.png)
*Format: mp3@CBR320kbps
*Size: 101MB

Tracklist:
1. Downfall 06:13
2. Release the Beast 03:38
3. Savage Blood 06:07
4. Violent Attack 04:25
5. Queen on the Run 05:48
6. We Sweat Blood 04:27
7. Die in Spirit 05:43
8. Guardian Angel 04:33
******************************
Total playing time: 40:54




Extended info
Markus "Wecker" Weckermann Bass, Vocals (2016-present)
See also: ex-Brett Pit, ex-Deterrent, ex-Sudden Death, Weckörhead, ex-Dormitory (live)
Marc Könnecke Drums (2016-present)
See also: ex-Enola Gay
Jörg Steinhake Guitars (2016-present)
See also: ex-Dormitory
Peter Diersmann Vocals (2016-present)
See also: ex-Enola Gay
Timios Guitars (2019-present)
See also: Cortex Dei, ex-Forsaken Tomb


Technical info
(IMG:https://metalarea.org/images/spectrogram/2020_Jun/37d0d224527345b2653a074c739cac88.png)
Input File: 03 Savage Blood.mp3
Channels : 2
Sample Rate : 44100
Precision : 16-bit
Duration : 00:06:07.82 = 16221038 samples = 27586.8 CDDA sectors
File Size : 15.2M
Bit Rate : 331k
Sample Encoding: MPEG audio (layer I, II or III)
Comments :
Title=Savage Blood
Artist=Savage Blood
Album=Downfall
Tracknumber=3
Year=2020-20-20
Genre=Rock
Discnumber=1/1



Register


Go to the top of the page
  Insert nick Quick quote
+Quote Post
 
Start new topic
Replies (1 - 1)
post Jun 28 2020, 23:23:39
Post #2

Четыре Литра
****
Group: Металариец
Posts: 327
Releases: 0
From: Kyiv
On Forums: 8 years 2 months
Thanks: 132 time(s)
Ukraine


Thrash/Heavy
Go to the top of the page
  Insert nick Quick quote
+Quote Post

Reply to this topicStart new topic
2 User(s) are reading this topic (2 Guests and 0 Anonymous Users)
0 Members:

 



- Lo-Fi Version Support form
Copyrights and abuse reports form
Time is now: 6th July 2020 - 04:10:41