Welcome Guest ( Log In | Register )

> Releases Upload / Добавление релизов

Добавить релиз тут / Click here to add release
Рекомендованные обменники / Recommended file shares

> Isolated - Ungodly Abomination (2020), Melodic Death/Thrash Metal (D6)
post Jun 27 2020, 06:49:46
Post #1

MDM-Thrash Metal
**************
Group: Металариец
Posts: 9,632
Releases: 914
From: Одесса
On Forums: 12 years 10 months
Thanks: 23611 time(s)
Ukraine


(IMG:http://metalarea.org/images/audiocovers/2020_Jun/acov_tid339382_thumb.jpg)

*Artist: Isolated
*Album: Ungodly Abomination
*Year: 2020
*Genre: Melodic Death/Thrash Metal
*Country: Mexico (IMG:http://metalarea.org/forum/style_images/flags/Mexico.png)
*Format: mp3@CBR320kbps
*Size: 99MB

Tracklist:
01. Devil's Mansion
02. Nuns of Evil
03. True Game Of Death
04. Cry of The Banshee
05. Dawn of The Dead
06. Ente Maligno
07. Ungodly Abomination
08. Tumba Tenebrosa
******************************
Total playing time: 40:10



(IMG:http://metalarea.org/images/youtube.png)
(IMG:http://metalarea.org/images/youtube.png)

Extended info
I. Ishtar Guitars, Bass (2003-2015)
See also: Deformate, Dødsfall, Sorrowful, ex-Blodshämnd, ex-Engrave, ex-Eternal Negation, ex-Moonlight, ex-Sepulcro, ex-DoomDogs, ex-Forest of Doom, ex-Kvalvaag, ex-Satan, ex-Desolacion, ex-Serpent's Blood
Alfonso Sánchez Drums (2017-present)
See also: Evilforces, Majestic Downfall, Ticket to Hell, Umbrälia, ex-Sorrowful, ex-The Ill over Death, ex-Shemhamphorash
P. Garnica Vocals (2017-present)


Technical info
(IMG:http://metalarea.org/images/spectrogram/2020_Jun/3ed01ce76ab30ff19af937df7d1da9f9.png)
Input File: 02. Nuns of Evil.mp3
Channels : 2
Sample Rate : 44100
Precision : 16-bit
Duration : 00:05:00.32 = 13244244 samples = 22524.2 CDDA sectors
File Size : 12.5M
Bit Rate : 332k
Sample Encoding: MPEG audio (layer I, II or III)
Comments :
Title=Nuns of Evil
Artist=Isolated
Album=Ungodly Abomination
Tracknumber=02
Year=2020



Register


Go to the top of the page
  Insert nick Quick quote
+Quote Post
 
Start new topic
Replies (1 - 1)
post Jun 29 2020, 19:26:07
Post #2

Литр
*
Group: Подсевший
Posts: 53
Releases: 0
On Forums: 10 years 2 months
Thanks: 9 time(s)
Colombia


Interesante, gracias (IMG:style_emoticons/default/9.gif)
Go to the top of the page
  Insert nick Quick quote
+Quote Post

Reply to this topicStart new topic
2 User(s) are reading this topic (2 Guests and 0 Anonymous Users)
0 Members:

 



- Lo-Fi Version Support form
Copyrights and abuse reports form
Time is now: 6th July 2020 - 03:02:37