Welcome Guest ( Log In | Register )

> Releases Upload / Добавление релизов

Добавить релиз тут / Click here to add release
Рекомендованные обменники / Recommended file shares

> Cult Of Madness - Insanity [ep] (2020), Melodic Death Metal
post Jun 27 2020, 12:28:54
Post #1

Маньяк
**********
Group: Металариец
Posts: 1,279
Releases: 227
On Forums: 11 years 7 months
Thanks: 4567 time(s)
Russian Federation


(IMG:http://metalarea.org/images/audiocovers/2020_Jun/acov_tid339383_thumb.jpg)

*Artist: Cult Of Madness
*Album: Insanity [ep]
*Year: 2020
*Genre: Melodic Death Metal
*Country: Russian Federation (IMG:http://metalarea.org/forum/style_images/flags/Russian%20Federation.png)
*Format: mp3@CBR320kbps
*Size: 58MB

Tracklist:
01. Cult of Madness 01:52
02. A Leper World 04:18
03. Ritual 04:26
04. Live like Immortal 05:34
05. Reign of Insanity 04:28
06. Up to the Throat 04:16
******************************
Total playing time: 24:54



Preview 3
Preview 4

Extended info






Lineup:
Pavel Melnikov Drums
Kirill Tafintsev Guitars
Evan Monster Guitars (lead)
Maxim Sergachev Vocals


Technical info
(IMG:http://metalarea.org/images/spectrogram/2020_Jun/8b5d62518ed372f7f55094221919be4e.png)
Input File: 02-A Leper World.mp3
Channels : 2
Sample Rate : 44100
Precision : 16-bit
Duration : 00:04:18.34 = 11392882 samples = 19375.6 CDDA sectors
File Size : 10.3M
Bit Rate : 320k
Sample Encoding: MPEG audio (layer I, II or III)
Comments :
Title=A Leper World
Artist=Cult Of Madness
Album=Insanity
Tracknumber=2
Year=2020
Genre=Melodic Death Metal



Register


Go to the top of the page
  Insert nick Quick quote
+Quote Post
 
Start new topic
Replies (1 - 2)
post Jun 28 2020, 14:46:20
Post #2

Правь статус, ####!111
**************
Group: Металариец
Posts: 3,064
Releases: 8
From: Dnipro
On Forums: 11 years 11 months
Thanks: 1003 time(s)
Ukraine


Хоть немного и заезженно по стилю, но вполне не плохо.
Go to the top of the page
  Insert nick Quick quote
+Quote Post
post Jun 29 2020, 19:33:14
Post #3

Литр
*
Group: Подсевший
Posts: 53
Releases: 0
On Forums: 10 years 2 months
Thanks: 9 time(s)
Colombia


Thanx for sharing ! (IMG:style_emoticons/default/9.gif)



Thanks:
Go to the top of the page
  Insert nick Quick quote
+Quote Post

Reply to this topicStart new topic
2 User(s) are reading this topic (2 Guests and 0 Anonymous Users)
0 Members:

 



- Lo-Fi Version Support form
Copyrights and abuse reports form
Time is now: 6th July 2020 - 04:27:24