Welcome Guest ( Log In | Register )

> Releases Upload / Добавление релизов

Добавить релиз тут / Click here to add release
Рекомендованные обменники / Recommended file shares

 
Reply to this topicStart new topic
> Entartung - Maleficae Artes (2020), Black Metal
post Jun 27 2020, 14:17:32
Post #1

Правь статус, ####!111
**************
Group: Металариец
Posts: 22,266
Releases: 15420
From: Г.Харьков
On Forums: 8 years 1 month
Thanks: 281818 time(s)
Unknown


(IMG:https://metalarea.org/images/audiocovers/2020_Jun/acov_tid339385_thumb.jpg)

*Artist: Entartung
*Album: Maleficae Artes
*Year: 2020
*Genre: Black Metal
*Country: Germany (IMG:https://metalarea.org/forum/style_images/flags/Germany.png)
*Format: mp3@CBR320kbps
*Size: 85MB

Tracklist:
1. Tower of Silence 09:31
2. Bortförd 09:37
3. Un Ciel Bourbeux et Noir 01:36
4. Circle of Suffering 07:57
5. Aufruhr MDXXV 12:02
******************************
Total playing time: 40:43




Extended info
Lykormas Guitars
Vulfolaic Vocals, Bass, Keyboards
Haistulf Drums


Technical info
(IMG:https://metalarea.org/images/spectrogram/2020_Jun/4a5a9f0fe2c980328f3a64b75cb76fb5.png)
Input File: 04. Circle Of Suffering.mp3
Channels : 2
Sample Rate : 44100
Precision : 16-bit
Duration : 00:07:56.53 = 21014929 samples = 35739.7 CDDA sectors
File Size : 19.2M
Bit Rate : 322k
Sample Encoding: MPEG audio (layer I, II or III)
Comments :
Title=Circle Of Suffering
Artist=Entartung
Album=Maleficae Artes
Tracknumber=4/5
Year=2020
Discnumber=1/1



Register


Go to the top of the page
  Insert nick Quick quote
+Quote Post

Reply to this topicStart new topic
1 User(s) are reading this topic (1 Guests and 0 Anonymous Users)
0 Members:

 



- Lo-Fi Version Support form
Copyrights and abuse reports form
Time is now: 6th July 2020 - 03:22:24