Welcome Guest ( Log In | Register )

> Releases Upload / Добавление релизов

Добавить релиз тут / Click here to add release
Рекомендованные обменники / Recommended file shares

 
Reply to this topicStart new topic
> Insilence - El Hechizo [ep] (2020), Gothic Metal
post Jun 27 2020, 15:58:39
Post #1

Правь статус, ####!111
**************
Group: Металариец
Posts: 2,921
Releases: 2616
From: Одесса
On Forums: 12 years 1 month
Thanks: 25145 time(s)
Ukraine


(IMG:http://metalarea.org/images/audiocovers/2020_Jun/acov_tid339389_thumb.jpg)

*Artist: Insilence
*Album: El Hechizo [ep]
*Year: 2020
*Genre: Gothic Metal
*Country: Mexico (IMG:http://metalarea.org/forum/style_images/flags/Mexico.png)
*Format: mp3@CBR320kbps
*Size: 42MB

Tracklist:
1. Intro 02:06 instrumental
2. El hechizo 04:02
3. Tu recuerdo 03:17
4. La promesa 04:26
5. Yo te amo 03:50
******************************
Total playing time: 17:41



Extended info
Line - up:

Arnulfo Flores - Drums, Bass (ex-Supplicium)
Alex Salazar - Guitars, Keyboards, Vocals (backing) (ex-Supplicium)
Zareeh PoisonLust - Vocals

(IMG:https://www.metal-archives.com/images/3/5/4/0/3540470013_photo.jpg?2400)


Technical info
(IMG:http://metalarea.org/images/spectrogram/2020_Jun/9603a60a8290c8bd592da0305671fc0f.png)
Input File: 02. El Hechizo.mp3
Channels : 2
Sample Rate : 44100
Precision : 16-bit
Duration : 00:04:02.59 = 10698175 samples = 18194.2 CDDA sectors
File Size : 9.71M
Bit Rate : 320k
Sample Encoding: MPEG audio (layer I, II or III)
Comments :
Title=El Hechizo
Artist=Insilence
Album=El Hechizo (EP)
Tracknumber=2
Year=2020
Genre=Gothic Metal



Register


Go to the top of the page
  Insert nick Quick quote
+Quote Post

Reply to this topicStart new topic
1 User(s) are reading this topic (1 Guests and 0 Anonymous Users)
0 Members:

 



- Lo-Fi Version Support form
Copyrights and abuse reports form
Time is now: 6th July 2020 - 03:54:57