Welcome Guest ( Log In | Register )

> Releases Upload / Добавление релизов

Добавить релиз тут / Click here to add release
Рекомендованные обменники / Recommended file shares

> Mnstrgry - Way Out (2020), Progressive/Post-Black Metal
post Jun 27 2020, 16:41:00
Post #1

Маньяк
**********
Group: Металариец
Posts: 1,279
Releases: 227
On Forums: 11 years 7 months
Thanks: 4567 time(s)
Russian Federation


(IMG:http://metalarea.org/images/audiocovers/2020_Jun/acov_tid339390_thumb.jpg)

*Artist: Mnstrgry
*Album: Way Out
*Year: 2020
*Genre: Progressive/Post-Black Metal
*Country: Russian Federation (IMG:http://metalarea.org/forum/style_images/flags/Russian%20Federation.png)
*Format: mp3@CBR320kbps
*Size: 87MB

Tracklist:
01. Parasite 03:05
02. Ugly 04:05
03. Dumb 02:52
04. In Love With Death 04:14
05. Wake Me Up 03:03
06. Prayer 04:32
07. Naked 03:25
08. Insane 04:54
09. Burn 03:18
10. Nomad 04:20
******************************
Total playing time: 37:48


Preview 2


Extended info





Vox and lyrics: Victoria Grizley
music: Dmitriy Zamotaev
recording: AV-records
mixing and mastering: Ayli Konclever

Released June 27, 2020

This album describes a story of a soul trying to get through the circle of daydreaming and finding the way out of sansara

***FLAC-Rip***


Technical info
(IMG:http://metalarea.org/images/spectrogram/2020_Jun/360db96f6ea5e59c7ba2c6cfc5346afa.png)
Input File: 02-Ugly.mp3
Channels : 2
Sample Rate : 44100
Precision : 16-bit
Duration : 00:04:05.07 = 10807631 samples = 18380.3 CDDA sectors
File Size : 9.80M
Bit Rate : 320k
Sample Encoding: MPEG audio (layer I, II or III)
Comments :
Title=Ugly
Artist=Mnstrgry
Album=Way Out
Tracknumber=2
Year=2020
Genre=Progressive/Post-Black Metal



Register


Go to the top of the page
  Insert nick Quick quote
+Quote Post
 
Start new topic
Replies (1 - 1)
post Jun 27 2020, 21:30:50
Post #2

Маньяк
**********
Group: Металариец
Posts: 1,279
Releases: 227
On Forums: 11 years 7 months
Thanks: 4567 time(s)
Russian Federation


FLAC tracks
Register


Thanks:
(1) Olethros,
Go to the top of the page
  Insert nick Quick quote
+Quote Post

Reply to this topicStart new topic
2 User(s) are reading this topic (2 Guests and 0 Anonymous Users)
0 Members:

 



- Lo-Fi Version Support form
Copyrights and abuse reports form
Time is now: 6th July 2020 - 03:11:15