Welcome Guest ( Log In | Register )

> Releases Upload / Добавление релизов

Добавить релиз тут / Click here to add release
Рекомендованные обменники / Recommended file shares

> Necroscum - Self Collapse [ep] (2020), Death Metal
post Jun 27 2020, 19:28:51
Post #1

Serial Uploader
Group Icon
Group: V.I.P
Posts: 37,203
Releases: 35386
From: Lithuania
On Forums: 12 years 4 weeks
Thanks: 421183 time(s)
Lithuania


(IMG:http://metalarea.org/images/audiocovers/2020_Jun/acov_tid339391_thumb.jpg)

*Artist: Necroscum
*Album: Self Collapse [ep]
*Year: 2020
*Genre: Death Metal
*Country: France (IMG:http://metalarea.org/forum/style_images/flags/France.png)
*Format: mp3@CBR320kbps
*Size: 43MB

Tracklist:
01. Ode to a Pestilent Penance
02. Devotion to Affliction
03. Solitary Dread Ruin
04. Agony
******************************
Total playing time: 15:56



Technical info
(IMG:http://metalarea.org/images/spectrogram/2020_Jun/2315985a5b71084bbe91a547dfeeb181.png)
Input File: Necroscum - Self Collapse (320) - 02. Devotion to Affliction.mp3
Channels : 2
Sample Rate : 44100
Precision : 16-bit
Duration : 00:04:01.88 = 10667084 samples = 18141.3 CDDA sectors
File Size : 11.0M
Bit Rate : 364k
Sample Encoding: MPEG audio (layer I, II or III)
Comments :
Title=Devotion to Affliction
Artist=Necroscum
Album=Self Collapse (320)
Tracknumber=2
Year=2020
Genre=Death Metal



Register


Go to the top of the page
  Insert nick Quick quote
+Quote Post
 
Start new topic
Replies (1 - 3)
post Jun 27 2020, 22:45:25
Post #2

Литр
*
Group: Подсевший
Posts: 74
Releases: 0
On Forums: 2 months 3 weeks
Thanks: 40 time(s)
Unknown


Сольник Necroscum-а (IMG:style_emoticons/default/1488.gif) (IMG:style_emoticons/default/7.gif)
Go to the top of the page
  Insert nick Quick quote
+Quote Post
post Jun 27 2020, 22:50:53
Post #3

Ледоруб
**************
Group: Металариец
Posts: 25,955
Releases: 0
From: Санкт-Петербург
On Forums: 10 years 9 months
Thanks: 9045 time(s)
Russian Federation


Так вот куда ты пропадал.


Go to the top of the page
  Insert nick Quick quote
+Quote Post
post Jun 28 2020, 09:42:05
Post #4

Шесть Литров
******
Group: Металариец
Posts: 627
Releases: 0
From: APATIN, SERBIA, АПАТИН, СЕРБИЯ
On Forums: 12 years 8 months
Thanks: 1019 time(s)



Flac

Register


Go to the top of the page
  Insert nick Quick quote
+Quote Post

Reply to this topicStart new topic
2 User(s) are reading this topic (2 Guests and 0 Anonymous Users)
0 Members:

 



- Lo-Fi Version Support form
Copyrights and abuse reports form
Time is now: 6th July 2020 - 04:39:45