Welcome Guest ( Log In | Register )

> Releases Upload / Добавление релизов

Добавить релиз тут / Click here to add release
Рекомендованные обменники / Recommended file shares

> Sinira - The Everlorn (2020), Melodic Black Metal
post Jun 27 2020, 19:30:53
Post #1

MDM-Thrash Metal
**************
Group: Металариец
Posts: 9,634
Releases: 915
From: Одесса
On Forums: 12 years 10 months
Thanks: 23638 time(s)
Ukraine


(IMG:http://metalarea.org/images/audiocovers/2020_Jun/acov_tid339392_thumb.jpg)

*Artist: Sinira
*Album: The Everlorn
*Year: 2020
*Genre: Melodic Black Metal
*Country: United States (IMG:http://metalarea.org/forum/style_images/flags/United%20States.png)
*Format: mp3@CBR320kbps
*Size: 133MB

Tracklist:
1. Where Starlight Does Not Shine 07:47
2. Gardens of Pestilence 08:21
3. The Everlorn 09:26
4. Souls of the Flame 01:48
5. Tear Ladened Skies 06:48
6. Our Final Nightfall 07:45
7. Dawnless Twilight 11:27
8. Omega XI 02:44
******************************
Total playing time: 56:06


(IMG:http://metalarea.org/images/youtube.png)

Extended info
Knell Guitars, Vocals, Bass (2016-present)


Technical info
(IMG:http://metalarea.org/images/spectrogram/2020_Jun/448474d852e413fb1d5f7b681d7fb986.png)
Input File: 02. Gardens of Pestilence.mp3
Channels : 2
Sample Rate : 44100
Precision : 16-bit
Duration : 00:08:21.40 = 22111520 samples = 37604.6 CDDA sectors
File Size : 20.1M
Bit Rate : 320k
Sample Encoding: MPEG audio (layer I, II or III)
Comments :
Title=Gardens Of Pestilence
Artist=Sinira
Album=The Everlorn
Tracknumber=2
Year=2020
Genre=Black Metal



Register


Go to the top of the page
  Insert nick Quick quote
+Quote Post
 
Start new topic
Replies (1 - 4)
post Jun 28 2020, 14:34:08
Post #2

Правь статус, ####!111
**************
Group: Металариец
Posts: 3,064
Releases: 8
From: Dnipro
On Forums: 11 years 11 months
Thanks: 1005 time(s)
Ukraine


Чувак прожженный фанат Dissection, по этому и музыка у него такая (IMG:style_emoticons/default/15.gif)
Полный клон Dissection, что само по себе в принципе уже достаточно интересно (IMG:style_emoticons/default/20.gif)


Go to the top of the page
  Insert nick Quick quote
+Quote Post
post Jun 29 2020, 09:39:10
Post #3

Правь статус, ####!111
**************
Group: Металариец
Posts: 3,064
Releases: 8
From: Dnipro
On Forums: 11 years 11 months
Thanks: 1005 time(s)
Ukraine


Замечательный клон получился, лося бы (IMG:style_emoticons/default/smile3.gif)
Go to the top of the page
  Insert nick Quick quote
+Quote Post
post Jul 1 2020, 07:15:57
Post #4

Два Литра
**
Group: Завсегдатай
Posts: 124
Releases: 1
On Forums: 11 years 11 months
Thanks: 109 time(s)
Egypt


I actually bought the digital version of this before finding it here.

Love their mix of Sacramentum, Dissection, Vinterland, The Moaning and Gates of Ishtar .
Basically if you love the music that a label like No Fashion Records put out in the 90's, this band is for you. Definitely waiting for this to be released on CD.


Thanks:
(1) Daale,
Go to the top of the page
  Insert nick Quick quote
+Quote Post
post Jul 3 2020, 18:08:05
Post #5

for me your flesh
**********
Group: Металариец
Posts: 1,053
Releases: 0
On Forums: 2 years 11 months
Thanks: 808 time(s)
Unknown


Релиз весьма неплох, но именно как копия. Сочинение и звук очень близки к оригиналу.
Go to the top of the page
  Insert nick Quick quote
+Quote Post

Reply to this topicStart new topic
1 User(s) are reading this topic (1 Guests and 0 Anonymous Users)
0 Members:

 



- Lo-Fi Version Support form
Copyrights and abuse reports form
Time is now: 9th July 2020 - 07:56:02