Welcome Guest ( Log In | Register )

> Releases Upload / Добавление релизов

Добавить релиз тут / Click here to add release
Рекомендованные обменники / Recommended file shares

> Dead Carnage - From Hell For Hate (2020), Death Metal
post Jun 27 2020, 19:45:42
Post #1

MDM-Thrash Metal
**************
Group: Металариец
Posts: 9,632
Releases: 914
From: Одесса
On Forums: 12 years 10 months
Thanks: 23611 time(s)
Ukraine


(IMG:http://metalarea.org/images/audiocovers/2020_Jun/acov_tid339393_thumb.jpg)

*Artist: Dead Carnage
*Album: From Hell For Hate
*Year: 2020
*Genre: Death Metal
*Country: Czech Republic (IMG:http://metalarea.org/forum/style_images/flags/Czech%20Republic.png)
*Format: mp3@CBR320kbps
*Size: 88MB

Tracklist:
1. Edges of Manipulation 04:02
2. We Are Slowly Dying (Devastation) 03:02
3. Caged Brutality 03:59
4. My Blood Is Black 03:58
5. God´s Lobotomy 03:21
6. Chapel of Decay 04:12
7. From Dust 05:01
8. The First Kill..., The Last Kill... 03:14
9. Eternal Void (Hierophant cover) 03:45
******************************
Total playing time: 34:34



(IMG:http://metalarea.org/images/youtube.png)

Extended info
Petr "Pedy" Šmukař Bass
See also: Antigod, Disfigured Corpse, ex-Euthanasia
Ferenc 777 Drums
See also: Antigod, Disfigured Corpse, ex-Disfigured
Milhaus Guitars (2013-present)
See also: ex-Bloody Obsession, ex-Disfigured Corpse, ex-G.O.R.E
Yabback Guitars (2015-present)
See also: Antigod
Bendík Vocals (2019-present)
See also: ex-Adultery, ex-Grope for Thesis, ex-Silva Nigra, ex-Rhea, ex-Vesna (live)


Technical info
(IMG:http://metalarea.org/images/spectrogram/2020_Jun/7a304a212590fcf5af34ae02a7678dfb.png)
Input File: 02. We Are Slowly Dying (Devastation).mp3
Channels : 2
Sample Rate : 44100
Precision : 16-bit
Duration : 00:03:02.19 = 8034623 samples = 13664.3 CDDA sectors
File Size : 8.01M
Bit Rate : 352k
Sample Encoding: MPEG audio (layer I, II or III)
Comments :
Title=We Are Slowly Dying (Devastation)
Artist=Dead Carnage
Album=From Hell for Hate
Tracknumber=2
Year=2020
Genre=Death Metal



Register


Go to the top of the page
  Insert nick Quick quote
+Quote Post
 
Start new topic
Replies (1 - 2)
post Jun 28 2020, 09:40:16
Post #2

Шесть Литров
******
Group: Металариец
Posts: 627
Releases: 0
From: APATIN, SERBIA, АПАТИН, СЕРБИЯ
On Forums: 12 years 8 months
Thanks: 1019 time(s)



Flac

Register


Go to the top of the page
  Insert nick Quick quote
+Quote Post
post Jun 30 2020, 06:16:04
Post #3

спиногрыз-кровосос
****
Group: Металариец
Posts: 396
Releases: 0
On Forums: 11 years 5 months
Thanks: 70 time(s)
Russian Federation


хорошо валят
Go to the top of the page
  Insert nick Quick quote
+Quote Post

Reply to this topicStart new topic
2 User(s) are reading this topic (2 Guests and 0 Anonymous Users)
0 Members:

 



- Lo-Fi Version Support form
Copyrights and abuse reports form
Time is now: 6th July 2020 - 02:21:01