Welcome Guest ( Log In | Register )

> Releases Upload / Добавление релизов

Добавить релиз тут / Click here to add release
Рекомендованные обменники / Recommended file shares

> Shallow Waters - Bed Of Snakes (2020), Melodic/Post-Black/Doom Metal
post Jun 27 2020, 20:30:06
Post #1

MDM-Thrash Metal
**************
Group: Металариец
Posts: 9,625
Releases: 912
From: Одесса
On Forums: 12 years 10 months
Thanks: 23539 time(s)
Ukraine


(IMG:http://metalarea.org/images/audiocovers/2020_Jun/acov_tid339396_thumb.jpg)

*Artist: Shallow Waters
*Album: Bed Of Snakes
*Year: 2020
*Genre: Melodic/Post-Black/Doom Metal
*Country: Spain (IMG:http://metalarea.org/forum/style_images/flags/Spain.png)
*Format: mp3@CBR320kbps
*Size: 112MB

Tracklist:
1. Approaching the Unknown 05:41
2. Blended in the Urn 06:43
3. The Tears I've Shed 05:35
4. Bed of Snakes 05:14
5. My Hidden Friend 05:46
6. Light the Pyre 04:10
7. Scars on Your Chest 04:56
8. Banished Endeavours 05:51
9. Outward Journey 05:25
******************************
Total playing time: 49:21



(IMG:http://metalarea.org/images/youtube.png)

Extended info
Tristán Iñiguez Guitars (2018-present)
See also: The Great Wound, ex-Darkness by Oath
Andrés Pestana Hidalgo Guitars, Vocals (clean) (2018-present)
See also: Demised
Pablo Egido Vocals (2018-present)
See also: The Holeum, ex-Nahemah


Technical info
(IMG:http://metalarea.org/images/spectrogram/2020_Jun/ba4e94df1d6a832412d28f2f46f96884.png)
Input File: 02 Blended In The Urn.mp3
Channels : 2
Sample Rate : 44100
Precision : 16-bit
Duration : 00:06:31.34 = 17258050 samples = 29350.4 CDDA sectors
File Size : 15.7M
Bit Rate : 320k
Sample Encoding: MPEG audio (layer I, II or III)
Comments :
Title=Blended In The Urn
Artist=SHALLOW WATERS



Register


Go to the top of the page
  Insert nick Quick quote
+Quote Post
 
Start new topic
Replies (1 - 2)
post Jun 29 2020, 09:37:10
Post #2

Правь статус, ####!111
**************
Group: Металариец
Posts: 3,061
Releases: 8
From: Dnipro
On Forums: 11 years 11 months
Thanks: 1002 time(s)
Ukraine


Очень не плохо как для испанцев. (IMG:style_emoticons/default/dooo.gif)
Go to the top of the page
  Insert nick Quick quote
+Quote Post
post Jun 29 2020, 17:53:27
Post #3

Четыре Литра
****
Group: Металариец
Posts: 362
Releases: 208
On Forums: 7 years 9 months
Thanks: 5602 time(s)
Unknown


Как по мне это мелодик-дум финский конца 90-х начала 00-х. Мягкий, нежный и зефирный. Ну и что-то в стиле Clouds проскальзывает в звучании. Блэка почти не нашёл


Thanks:
(1) MeatWolf,
Go to the top of the page
  Insert nick Quick quote
+Quote Post

Reply to this topicStart new topic
1 User(s) are reading this topic (1 Guests and 0 Anonymous Users)
0 Members:

 



- Lo-Fi Version Support form
Copyrights and abuse reports form
Time is now: 3rd July 2020 - 14:02:15