Welcome Guest ( Log In | Register )

> Releases Upload / Добавление релизов

Добавить релиз тут / Click here to add release
Рекомендованные обменники / Recommended file shares

> Silent Heaven - Temple Of Greed (2020), Progressive Power Metal
post Jun 27 2020, 22:59:23
Post #1

MDM-Thrash Metal
**************
Group: Металариец
Posts: 9,632
Releases: 914
From: Одесса
On Forums: 12 years 10 months
Thanks: 23611 time(s)
Ukraine


(IMG:http://metalarea.org/images/audiocovers/2020_Jun/acov_tid339397_thumb.jpg)

*Artist: Silent Heaven
*Album: Temple Of Greed
*Year: 2020
*Genre: Progressive Power Metal
*Country: Brazil (IMG:http://metalarea.org/forum/style_images/flags/Brazil.png)
*Format: mp3@CBR320kbps
*Size: 150MB

Tracklist:
01. Into the Silent Heaven (Intro) 01:35
02. Clouds of Fate 04:54
03. Temple of Greed 04:41
04. Dark Side of Love 05:42
05. Promised Land 06:25
06. Sorrow 05:34
07. Miracle of Life 05:48
08. Stay Away 05:10
09. Elderlyland 05:51
10. Push Me Down 05:35
11. Sonhador 06:04
12. Shadows Prevail 05:18
******************************
Total playing time: 1:02:37

(IMG:http://metalarea.org/images/youtube.png)
(IMG:http://metalarea.org/images/youtube.png)
(IMG:http://metalarea.org/images/youtube.png)


Technical info
(IMG:http://metalarea.org/images/spectrogram/2020_Jun/f23e74de839e990da0a01bc005efbb54.png)
Input File: 02. Clouds of Fate.mp3
Channels : 2
Sample Rate : 44100
Precision : 16-bit
Duration : 00:04:53.87 = 12959667 samples = 22040.2 CDDA sectors
File Size : 11.9M
Bit Rate : 324k
Sample Encoding: MPEG audio (layer I, II or III)
Comments :
Title=Clouds of Fate
Artist=Silent Heaven
Album=Temple of Greed
Tracknumber=2/12
Year=2020
Genre=9
Discnumber=1/1



Register


Go to the top of the page
  Insert nick Quick quote
+Quote Post
 
Start new topic
Replies (1 - 1)
post Jul 1 2020, 06:10:18
Post #2

hearer & reader
**************
Group: Металариец
Posts: 8,796
Releases: 144
From: Moscow
On Forums: 12 years 9 months
Thanks: 8954 time(s)
Russian Federation


Go to the top of the page
  Insert nick Quick quote
+Quote Post

Reply to this topicStart new topic
2 User(s) are reading this topic (2 Guests and 0 Anonymous Users)
0 Members:

 



- Lo-Fi Version Support form
Copyrights and abuse reports form
Time is now: 6th July 2020 - 02:53:59