Welcome Guest ( Log In | Register )

> Releases Upload / Добавление релизов

Добавить релиз тут / Click here to add release
Рекомендованные обменники / Recommended file shares

> Svartsyn - A Night Created By The Shadows... And The Resuscitation Of Unspoken Rituals [compilation] (2019), Black Metal (D)
post Jun 28 2020, 11:35:47
Post #1

𝕻𝕬𝕹𝕬𝕮𝕰𝕬
********
Group: Металариец
Posts: 833
Releases: 479
On Forums: 8 years 1 month
Thanks: 7995 time(s)
Unknown


(IMG:https://metalarea.org/images/audiocovers/2020_Jun/acov_tid339400_thumb.jpg)

*Artist: Svartsyn
*Album: A Night Created By The Shadows... And The Resuscitation Of Unspoken Rituals [compilation]
*Year: 2019
*Genre: Black Metal
*Country: Sweden (IMG:https://metalarea.org/forum/style_images/flags/Sweden.png)
*Format: mp3@CBR320kbps
*Size: 106MB

Tracklist:
1. Intro 01:19
2. Upon The Throne 05:34
3. A Cursed Blaze From The Castle 05:05
4. The Great Mysteriis Of Death 05:58
5. A Night Created By The Shadows 05:28
6. Under The Devil's Moon 05:56
7. Digerdöden 05:03
8. One Star (Starcursed And Dead) 05:04
9. Dark Kingdom 04:42
10. Blakullaförbannelsen 01:34
11. Outro 01:14
******************************
Total playing time: 46:57



Extended info
“A Night Created By The Shadows” 1995 demo plus an exclusive bonus material from the same recording session, that was once supposed to be released as a full-length album together with these demo tracks.

-Limited edition 1st press (300, handnumbered) 12" black vinyl.
-Limited edition 2nd press (250 copies) on grey splatter vinyl.
-Limited edition CD (350 copies) with different cover and fold-out booklet, collaboration release Nomad Snakepit Productions with New Era Productions.


Technical info
(IMG:https://metalarea.org/images/spectrogram/2020_Jun/b5656d519a58cc3612e477270d12cd75.png)
Input File: 09 - Dark Kingdom.mp3
Channels : 2
Sample Rate : 44100
Precision : 16-bit
Duration : 00:04:44.08 = 12528104 samples = 21306.3 CDDA sectors
File Size : 11.4M
Bit Rate : 320k
Sample Encoding: MPEG audio (layer I, II or III)
Comments :
Title=Dark Kingdom
Artist=Svartsyn
Album=A Night Created By The Shadows... And The Resuscitation Of Unspoken Rituals
Tracknumber=9
Year=2019
Genre=Black Metal



Register


Go to the top of the page
  Insert nick Quick quote
+Quote Post
 
Start new topic
Replies (1 - 1)
post Jun 29 2020, 16:48:46
Post #2

Шесть Литров
******
Group: Металариец
Posts: 605
Releases: 0
From: Цимлянск
On Forums: 6 years 1 month
Thanks: 124 time(s)
Russian Federation


в заголовке спектры срез на 19 кГц.
224 kbps - срез на 19000 Hz
Go to the top of the page
  Insert nick Quick quote
+Quote Post

Reply to this topicStart new topic
2 User(s) are reading this topic (2 Guests and 0 Anonymous Users)
0 Members:

 



- Lo-Fi Version Support form
Copyrights and abuse reports form
Time is now: 6th July 2020 - 02:18:26