Welcome Guest ( Log In | Register )

> Releases Upload / Добавление релизов

Добавить релиз тут / Click here to add release
Рекомендованные обменники / Recommended file shares

 
Reply to this topicStart new topic
> Myrkridia - Termination Entity (2020), Black/Death Metal
post Jun 28 2020, 11:40:26
Post #1

Правь статус, ####!111
**************
Group: Металариец
Posts: 22,241
Releases: 15400
From: Г.Харьков
On Forums: 8 years 1 month
Thanks: 281099 time(s)
Unknown


(IMG:https://metalarea.org/images/audiocovers/2020_Jun/acov_tid339401_thumb.jpg)

*Artist: Myrkridia
*Album: Termination Entity
*Year: 2020
*Genre: Black/Death Metal
*Country: United States (IMG:https://metalarea.org/forum/style_images/flags/United%20States.png)
*Format: mp3@CBR320kbps
*Size: 49MB

Tracklist:
01. Armageddon Gutsfuck
02. Vomit Suicide
03. Desecration Slaughter
04. Lust for Rotting Angels
05. Maligned Poisoned Womb
06. Subjugation of Flames
07. Nuclear Tomb
******************************
Total playing time: 21:23




Extended info
Jared Moran All instruments, Vocals (2012-present)
See also: 54R, Ange de la Mort, Bloodsick, Cave, Conjuration Trance, Corpse Arise, Dragón Blanco, Draug, Eats Aids, Er Murazor, Filtheater, Flesh Configuration, Flittering, Forestfather, Inner Sphere, Ishimura, Kamikaze Pilots, Louching, Maggot Crown, Morgue Walker, Mountain of Beard, Occulsed, Oshiego, Putrefying Cadaverment, Raum, Shokushu Goukan, Spawning Vats, Subterranean Birthright, The Breaking Wheel, The Plague Doctor, Uzumaki, Vomitwolves, Xvart, Yzordderrex, Zombie Raiders, Ithaqua, Scowl, ex-Hollowed Idols, ex-Immaculate Molestation, ex-Your End, Boiled Tongue, Confined Space, Dragunov, Homie Kisses, Old Woman with No Teeth, Popiel, ex-Cosmic Atrophy, ex-Gurthang, ex-Vixenta, ex-Bunker Buster, ex-Driven by Suffering, ex-Recovery Period, ex-S & M Party, ex-Seppuku, ex-The Men Behind the Sun, ex-The Nautilus


Technical info
(IMG:https://metalarea.org/images/spectrogram/2020_Jun/ace39a0559392183fd0c7fb874137521.png)
Input File: 07. Nuclear Tomb.mp3
Channels : 2
Sample Rate : 44100
Precision : 16-bit
Duration : 00:03:52.56 = 10255808 samples = 17441.9 CDDA sectors
File Size : 9.30M
Bit Rate : 320k
Sample Encoding: MPEG audio (layer I, II or III)
Comments :
Title=Nuclear Tomb
Artist=Myrkridia
Album=Termination Entity
Tracknumber=7
Year=2020



Register


Go to the top of the page
  Insert nick Quick quote
+Quote Post

Reply to this topicStart new topic
1 User(s) are reading this topic (1 Guests and 0 Anonymous Users)
0 Members:

 



- Lo-Fi Version Support form
Copyrights and abuse reports form
Time is now: 3rd July 2020 - 13:52:47