Welcome Guest ( Log In | Register )

> И неформату есть предел.

Рэп/хип-хоп/шансон/поп удаляются. Для них есть свои порталы.

 
Reply to this topicStart new topic
> Various Artists - Sonic Seducer: Cold Hands Seduction Vol. 218 [compilation] (2020), Various Gothic/Electro
post Jun 28 2020, 12:15:02
Post #1

Мегаманьяк
***********
Group: Металариец
Posts: 1,716
Releases: 462
On Forums: 12 years 3 months
Thanks: 6612 time(s)
Ireland


(IMG:https://metalarea.org/images/audiocovers/2020_Jun/acov_tid339402.jpg)

*Artist: Various Artists
*Album: Sonic Seducer: Cold Hands Seduction Vol. 218 [compilation]
*Year: 2020
*Genre: Various Gothic/Electro
*Country: Many (IMG:https://metalarea.org/forum/style_images/flags/Many.png)
*Format: mp3@CBR320kbps
*Size: 170MB

Tracklist:
01. Paradise Lost - Fall From Grace
02. Die Kreatur - Mensch / Maschine
03. Near Earth Orbit - Critical Mass
04. Ehrenfeld feat. Felix Flaucher - Flowers Burn All Evil (Weed Remix)
05. Orange Sector - Zerstörer
06. Armageddon Dildos - Heut Nacht
07. Xotox - UFO
08. Alphamay - The Heir Of Eternity
09. Feline And Strange - Restart From Zero
10. minusheart. - They Shout
11. Avarice In Audio - Trojan Horse
12. Danheim - Kala
13. Welicoruss - Siberian Heathen Horde
14. Ocean Thief - Den Tredje Dagen (Edit)
15. Left Hand Black - Murder On My Mind
16. Megatherium - The Strength (Radio Edit)
17. Rome Burns - The Salamander
******************************
Total playing time: 1:15:40

Technical info
(IMG:https://metalarea.org/images/spectrogram/2020_Jun/6515a9eeaee37b8ec25810078c09cdd5.png)
Input File: 02 Mensch - Maschine.mp3
Channels : 2
Sample Rate : 44100
Precision : 16-bit
Duration : 00:05:31.30 = 14610462 samples = 24847.7 CDDA sectors
File Size : 13.4M
Bit Rate : 323k
Sample Encoding: MPEG audio (layer I, II or III)
Comments :
Title=Mensch / Maschine
Artist=Die Kreatur
Album=Cold Hands Seduction Vol. 218
Tracknumber=02/17
Year=2020
Genre=50



Register


Go to the top of the page
  Insert nick Quick quote
+Quote Post

Reply to this topicStart new topic
1 User(s) are reading this topic (1 Guests and 0 Anonymous Users)
0 Members:

 



- Lo-Fi Version Support form
Copyrights and abuse reports form
Time is now: 12th August 2020 - 16:10:32