Welcome Guest ( Log In | Register )

> И неформату есть предел.

Рэп/хип-хоп/шансон/поп удаляются. Для них есть свои порталы.

 
Reply to this topicStart new topic
> Various Artists - Sonic Seducer: Cold Hands Seduction Vol. 219 [compilation] (2020), Various Gothic/Electro
post Jun 28 2020, 12:20:26
Post #1

Мегаманьяк
***********
Group: Металариец
Posts: 1,716
Releases: 462
On Forums: 12 years 2 months
Thanks: 6601 time(s)
Ireland


(IMG:https://metalarea.org/images/audiocovers/2020_Jun/acov_tid339403.jpg)

*Artist: Various Artists
*Album: Sonic Seducer: Cold Hands Seduction Vol. 219 [compilation]
*Year: 2020
*Genre: Various Gothic/Electro
*Country: Many (IMG:https://metalarea.org/forum/style_images/flags/Many.png)
*Format: mp3@CBR320kbps
*Size: 160MB

Tracklist:
01. Frozen Plasma - Another Girl
02. Arcana Obscura - Restless Dreams
03. Von Mollestein - Run Little Rabbit
04. The Slow Readers Club - Killing Me
05. 808 Dot Pop - Ultraviolet
06. Marco Gahrig (Illusion Of Light) - Create Yourself (Extended Version 2020)
07. Steril - Black Jesus (7 Inch Version)
08. Lights A.M. - Surrender & Evolve
09. Telepathy - Pariah
10. Cemetery Sex Fairies - Mystery
11. Elvis De Sade - Cheerings From The Other Side
12. N A T U R E - The Architect
13. H.O.W. - Happiness Imperative
14. p.c.n Ambiloco - Awaiting The Ascension Of Darkness
15. Kariti - Sky Burial
16. Grave Circles - Faith That Fades (Edit)
17. Demonum - Before The Law (Edit)
******************************
Total playing time: 1:11:00

Technical info
(IMG:https://metalarea.org/images/spectrogram/2020_Jun/10be558f888f47405b5d125ed437b691.png)
Input File: 12 The Architect.mp3
Channels : 2
Sample Rate : 44100
Precision : 16-bit
Duration : 00:01:52.20 = 4948108 samples = 8415.15 CDDA sectors
File Size : 4.58M
Bit Rate : 326k
Sample Encoding: MPEG audio (layer I, II or III)
Comments :
Title=The Architect
Artist=N A T U R E
Album=Cold Hands Seduction Vol. 219
Tracknumber=12/17
Year=2020
Genre=50



Register


Go to the top of the page
  Insert nick Quick quote
+Quote Post

Reply to this topicStart new topic
2 User(s) are reading this topic (2 Guests and 0 Anonymous Users)
0 Members:

 



- Lo-Fi Version Support form
Copyrights and abuse reports form
Time is now: 6th July 2020 - 03:59:32