Welcome Guest ( Log In | Register )

> Releases Upload / Добавление релизов

Добавить релиз тут / Click here to add release
Рекомендованные обменники / Recommended file shares

 
Reply to this topicStart new topic
> Dismalimerence - Tome: 1 (2020), Progressive/Atmospheric Black Metal
post Jun 28 2020, 14:45:52
Post #1

Маньяк
**********
Group: Металариец
Posts: 1,279
Releases: 227
On Forums: 11 years 7 months
Thanks: 4567 time(s)
Russian Federation


(IMG:http://metalarea.org/images/audiocovers/2020_Jun/acov_tid339406_thumb.jpg)

*Artist: Dismalimerence
*Album: Tome: 1
*Year: 2020
*Genre: Progressive/Atmospheric Black Metal
*Country: United States (IMG:http://metalarea.org/forum/style_images/flags/United%20States.png)
*Format: mp3@CBR320kbps
*Size: 117MB

Tracklist:
01. Crimson Glow 11:48
02. Sequestered Hearts 04:29
03. My Only Love 05:09
04. Orchid's Reverie 07:01
05. Pragma 03:41
06. Negligence of the Forgotten 05:13
07. Vale Amor 08:27
08. Destined For Solitude 05:13
******************************
Total playing time: 51:01



Preview 3
Preview 4

Extended info


Tome: 1 was written between 2011 & 2014 by Elijah Cirricione
Recorded in a home studio from January 2018 to August 2019

Released June 26, 2020

Mixed & Mastered by Spenser Morris
Guitars & Vocals - Elijah Cirricione
Bass - Craig Hamburger
Drums - Joey Casillas
Album Artwork by Aghy Purakusuma


Technical info
(IMG:http://metalarea.org/images/spectrogram/2020_Jun/4cccdfb4fc32ac0187f2f869ca30b4a5.png)
Input File: 2 - Sequestered Hearts.mp3
Channels : 2
Sample Rate : 44100
Precision : 16-bit
Duration : 00:04:29.45 = 11882525 samples = 20208.4 CDDA sectors
File Size : 10.8M
Bit Rate : 320k
Sample Encoding: MPEG audio (layer I, II or III)
Comments :
Title=Sequestered Hearts
Artist=Dismalimerence
Album=Tome: 1
Tracknumber=2
Year=2020
Genre=Progressive/Atmospheric Black Metal



Register


Go to the top of the page
  Insert nick Quick quote
+Quote Post

Reply to this topicStart new topic
2 User(s) are reading this topic (2 Guests and 0 Anonymous Users)
0 Members:

 



- Lo-Fi Version Support form
Copyrights and abuse reports form
Time is now: 6th July 2020 - 03:05:09