Welcome Guest ( Log In | Register )

> Releases Upload / Добавление релизов

Добавить релиз тут / Click here to add release
Рекомендованные обменники / Recommended file shares

> Les Mémoires Fall - The Tree: Yarns Of Life (2020), Gothic/Doom Metal
post Jun 28 2020, 15:42:40
Post #1

Правь статус, ####!111
**************
Group: Металариец
Posts: 22,266
Releases: 15420
From: Г.Харьков
On Forums: 8 years 1 month
Thanks: 281824 time(s)
Unknown


(IMG:https://metalarea.org/images/audiocovers/2020_Jun/acov_tid339407_thumb.jpg)

*Artist: Les Mémoires Fall
*Album: The Tree: Yarns Of Life
*Year: 2020
*Genre: Gothic/Doom Metal
*Country: Brazil (IMG:https://metalarea.org/forum/style_images/flags/Brazil.png)
*Format: mp3@CBR320kbps
*Size: 130MB

Tracklist:
01. Vacuum 11:19
02. Creation 10:13
03. Spring 07:53
04. Summer 09:39
05. Autumn 07:21
06. Winter 10:23
******************************
Total playing time: 56:48





Extended info
Emerson Mördien Vocals, Bass
See also: Die Sammy, Die, Mellinne, ex-Vermenoise
Alessandro "Grou" Guitars (2013-present)


Technical info
(IMG:https://metalarea.org/images/spectrogram/2020_Jun/785b3d39f1b4bfdba6b787f6d5b8dc11.png)
Input File: 3 - Spring.mp3
Channels : 2
Sample Rate : 44100
Precision : 16-bit
Duration : 00:07:53.39 = 20876675 samples = 35504.5 CDDA sectors
File Size : 19.0M
Bit Rate : 321k
Sample Encoding: MPEG audio (layer I, II or III)
Comments :
Title=Spring
Artist=Les Memoires Fall
Album=The Tree: Yarns Of Life
Tracknumber=3
Year=2020
Genre=Rock / Hard Rock / Metal
Discnumber=1



Register


Go to the top of the page
  Insert nick Quick quote
+Quote Post
 
Start new topic
Replies (1 - 2)
post Jun 28 2020, 22:07:29
Post #2

Два Литра
**
Group: Завсегдатай
Posts: 107
Releases: 0
On Forums: 2 years 5 months
Thanks: 36 time(s)
Belarus


Откровенно слабый, не интересный и заунывный материал.


Thanks:
Go to the top of the page
  Insert nick Quick quote
+Quote Post
post Jun 28 2020, 22:20:22
Post #3

Ледоруб
**************
Group: Металариец
Posts: 25,955
Releases: 0
From: Санкт-Петербург
On Forums: 10 years 9 months
Thanks: 9045 time(s)
Russian Federation


ЦИТАТА(GRAF @ 29th June 2020 - 00:07:29) *
Откровенно слабый, не интересный и заунывный GRAF.



Thanks:
Go to the top of the page
  Insert nick Quick quote
+Quote Post

Reply to this topicStart new topic
2 User(s) are reading this topic (2 Guests and 0 Anonymous Users)
0 Members:

 



- Lo-Fi Version Support form
Copyrights and abuse reports form
Time is now: 6th July 2020 - 04:33:31