Welcome Guest ( Log In | Register )

> Releases Upload / Добавление релизов

Добавить релиз тут / Click here to add release
Рекомендованные обменники / Recommended file shares

> 7For4 - Splash (2014), Progressive Metal/Jazz/Fusion
post Jun 28 2020, 16:31:27
Post #1

21st Century Schizoid Man
**************
Group: Металариец
Posts: 6,554
Releases: 80
From: Moscow
On Forums: 12 years 3 months
Thanks: 5426 time(s)
Russian Federation


(IMG:http://metalarea.org/images/audiocovers/2020_Jun/acov_tid339408_thumb.jpg)

*Artist: 7For4
*Album: Splash
*Year: 2014
*Genre: Progressive Metal/Jazz/Fusion
*Country: Germany (IMG:http://metalarea.org/forum/style_images/flags/Germany.png)
*Format: mp3@CBR320kbps
*Size: 124MB

Tracklist:
01. Junk Funk 04:33
02. Fortune 04:56
03. Downhill 02:44
04. If Only 06:06
05. The Scent 05:57
06. Murder She Said 04:11
07. Fiesta 06:05
08. Shhhh 05:13
09. Lesson Learned 04:54
10. Doubt and Ask 07:33
******************************
Total playing time: 52:12

(IMG:http://metalarea.org/images/youtube.png)

Extended info
Line-Up:
Wolfgang Zenk - Guitars
Markus Grutzner - Bass
Klaus Engl - Drums


Technical info
(IMG:http://metalarea.org/images/spectrogram/2020_Jun/1e6222f0db94873cc94929827e6ba25f.png)
Input File: 01. Junk Funk.mp3
Channels : 2
Sample Rate : 44100
Precision : 16-bit
Duration : 00:04:33.76 = 12072596 samples = 20531.6 CDDA sectors
File Size : 11.0M
Bit Rate : 322k
Sample Encoding: MPEG audio (layer I, II or III)
Comments :
Title=Junk Funk
Artist=7for4
Album=Splash
Tracknumber=01
Year=2014
Genre=Jazz Rock/Fusion



Register


Go to the top of the page
  Insert nick Quick quote
+Quote Post
 
Start new topic
Replies (1 - 7)
post Jun 29 2020, 07:26:20
Post #2

Три Литра
***
Group: Завсегдатай
Posts: 287
Releases: 0
On Forums: 2 years 7 months
Thanks: 52 time(s)
Unknown


Much appreciated Yarri! Thank you.


Thanks:
Go to the top of the page
  Insert nick Quick quote
+Quote Post
post Jun 29 2020, 10:41:54
Post #3

####!111
**************
Group: Металариец
Posts: 4,103
Releases: 127
From: The Mountain Of DOOM
On Forums: 12 years 9 months
Thanks: 5626 time(s)
Russian Federation


Что ж вы раньше молчали, что у них еще альбом есть?!
Go to the top of the page
  Insert nick Quick quote
+Quote Post
post Jun 30 2020, 22:15:23
Post #4

Два Литра
**
Group: Завсегдатай
Posts: 103
Releases: 0
From: Москва
On Forums: 13 years 9 months
Thanks: 28 time(s)
Russian Federation


Не самый тоскливый инструментал и с мелодиями неплохо, но больше одного раза желания слушать не возникло.
Go to the top of the page
  Insert nick Quick quote
+Quote Post
post Jul 11 2020, 18:12:03
Post #5

Четыре Литра
****
Group: Металариец
Posts: 367
Releases: 0
From: Сибирь
On Forums: 9 years 5 months
Thanks: 119 time(s)
Russian Federation


ЦИТАТА(Un4given @ Jun 29 2020, 16:41:54) *
Что ж вы раньше молчали, что у них еще альбом есть?!

У них четыре альбома на данный момент. На портале не было альбома "Diffusion" 2008 года
https://www.discogs.com/ru/artist/2985714-7-for-4
Go to the top of the page
  Insert nick Quick quote
+Quote Post
post Jul 11 2020, 18:35:27
Post #6

21st Century Schizoid Man
**************
Group: Металариец
Posts: 6,554
Releases: 80
From: Moscow
On Forums: 12 years 3 months
Thanks: 5426 time(s)
Russian Federation


Ogidni,
Был. Просто его залили как "7 For 4".

7 For 4 - Diffusion (2008)
Go to the top of the page
  Insert nick Quick quote
+Quote Post
post Jul 13 2020, 16:57:56
Post #7

Четыре Литра
****
Group: Металариец
Posts: 367
Releases: 0
From: Сибирь
On Forums: 9 years 5 months
Thanks: 119 time(s)
Russian Federation


Yarri,
Не подумал так искать ))
Go to the top of the page
  Insert nick Quick quote
+Quote Post
post Jul 15 2020, 12:31:40
Post #8

Schuldinerist
**************
Group: Металариец
Posts: 10,796
Releases: 34
From:
On Forums: 13 years 3 months
Thanks: 6962 time(s)
Russian Federation


Очень крутой альбом. 9+/10
Слушается легко и с радостью, несмотря на то, что инструментальный
Go to the top of the page
  Insert nick Quick quote
+Quote Post

Reply to this topicStart new topic
1 User(s) are reading this topic (1 Guests and 0 Anonymous Users)
0 Members:

 



- Lo-Fi Version Support form
Copyrights and abuse reports form
Time is now: 5th August 2020 - 21:09:10